Thread Rating:
  • 0 Vote(s) - 0 Average
  • 1
  • 2
  • 3
  • 4
  • 5

[-]
Tags
a odyssey bluray cosmos spacetime avc 1080p hd ma 1 remux 2014 dts 5

  Cosmos A Spacetime Odyssey (2014) Bluray Remux 1080p AVC DTS-HD MA 5.1
#1
Cosmos A Spacetime Odyssey (2014) Bluray Remux 1080p AVC DTS-HD MA 5.1

[Image: tt2395695.jpg]

[Image: imdb.png]
https://www.imdb.com/title/tt2395695/

[Image: info.png]
Cosmos A Spacetime Odyssey 01 2014 EN.mkv
Format                      : Matroska
Format version              : Version 4 / Version 2
File size                   : 10.3 GiB
Duration                    : 46 min 3 s
Overall bit rate mode       : Variable
Overall bit rate            : 31.9 Mb/s
Movie name                  : Cosmos: A Spacetime Odyssey
Encoded date                : UTC 2017-08-23 11:55:58
Writing application         : mkvmerge v15.0.0 ('Duel with the Devil') 64-bit
Writing library             : libebml v1.3.5 + libmatroska v1.4.5

Video
ID                          : 1
Format                      : AVC
Format/Info                 : Advanced Video Codec
Format profile              : [email protected]
Format settings, CABAC      : Yes
Format settings, ReFrames   : 4 frames
Codec ID                    : V_MPEG4/ISO/AVC
Duration                    : 46 min 3 s
Bit rate mode               : Variable
Bit rate                    : 27.7 Mb/s
Maximum bit rate            : 37.0 Mb/s
Width                       : 1 920 pixels
Height                      : 1 080 pixels
Display aspect ratio        : 16:9
Frame rate mode             : Constant
Frame rate                  : 23.976 (24000/1001) FPS
Color space                 : YUV
Chroma subsampling          : 4:2:0
Bit depth                   : 8 bits
Scan type                   : Progressive
Bits/(Pixel*Frame)          : 0.558
Stream size                 : 8.92 GiB (87%)
Title                       : Cosmos: A Spacetime Odyssey
Language                    : English
Default                     : Yes
Forced                      : No

Audio
ID                          : 2
Format                      : DTS
Format/Info                 : Digital Theater Systems
Format profile              : MA / Core
Mode                        : 16
Format settings, Endianness : Big
Codec ID                    : A_DTS
Duration                    : 46 min 3 s
Bit rate mode               : Variable / Constant
Bit rate                    : 4 087 kb/s / 1 509 kb/s
Channel(s)                  : 6 channels
Channel positions           : Front: L C R, Side: L R, LFE
Sampling rate               : 48.0 kHz
Frame rate                  : 93.750 FPS (512 spf)
Bit depth                   : 24 bits
Compression mode            : Lossless / Lossy
Stream size                 : 1.31 GiB (13%)
Title                       : English
Language                    : English
Default                     : Yes
Forced                      : No

Text #1
ID                          : 3
Format                      : PGS
Muxing mode                 : zlib
Codec ID                    : S_HDMV/PGS
Codec ID/Info               : Picture based subtitle format used on BDs/HD-DVDs
Duration                    : 42 min 46 s
Bit rate                    : 46.0 kb/s
Count of elements           : 1106
Stream size                 : 14.1 MiB (0%)
Title                       : English
Language                    : English
Default                     : No
Forced                      : No

Text #2
ID                          : 4
Format                      : PGS
Muxing mode                 : zlib
Codec ID                    : S_HDMV/PGS
Codec ID/Info               : Picture based subtitle format used on BDs/HD-DVDs
Duration                    : 42 min 46 s
Bit rate                    : 42.4 kb/s
Count of elements           : 1240
Stream size                 : 13.0 MiB (0%)
Title                       : Turkish
Language                    : Turkish
Default                     : Yes
Forced                      : No

[Image: 40873959353_a7ba1de1a0_b.jpg]

[Image: 47051136394_46a87742b2_b.jpg]

[Image: tdown.png]

For Only Vip Members

Cosmos A Spacetime Odyssey (2014) Bluray Remux 1080p AVC DTS-HD MA 5.1 VIP
Reply


Possibly Related Threads…
Thread Author Replies Views Last Post
  Cosmos - Possible Worlds (2020-) S01 WEBRip 1080p TR-EN x264-TT AbrA 0 282 08-07-2020, 11:41 AM
Last Post: AbrA

Forum Jump:


Users browsing this thread: 1 Guest(s)

Powered By MyBB
Theme By Audentio Design
Updated By iAndrew | 2018