Thread Rating:
  • 0 Vote(s) - 0 Average
  • 1
  • 2
  • 3
  • 4
  • 5

[-]
Tags
1997 bluray avc 1080p land cop hd ma 1 remux dts 5

 
  Cop Land (1997) Bluray Remux 1080p AVC DTS-HD MA 5.1
#1
Cop Land (1997) Bluray Remux 1080p AVC DTS-HD MA 5.1

[Image: tt0118887.jpg]

[Image: imdb.png]
https://www.imdb.com/title/tt0118887/

[Image: info.png]
Cop Land 1997 EN.mkv
Format                      : Matroska
Format version              : Version 4 / Version 2
File size                   : 20.9 GiB
Duration                    : 1 h 50 min
Overall bit rate mode       : Variable
Overall bit rate            : 27.0 Mb/s
Movie name                  : Cop Land
Encoded date                : UTC 2015-08-21 15:42:04
Writing application         : mkvmerge v8.3.0 ('Over the Horizon') 64bit
Writing library             : libebml v1.3.1 + libmatroska v1.4.2

Video
ID                          : 1
Format                      : AVC
Format/Info                 : Advanced Video Codec
Format profile              : [email protected]
Format settings, CABAC      : Yes
Format settings, ReFrames   : 3 frames
Codec ID                    : V_MPEG4/ISO/AVC
Duration                    : 1 h 44 min
Bit rate mode               : Variable
Bit rate                    : 24.0 Mb/s
Maximum bit rate            : 35.0 Mb/s
Width                       : 1 920 pixels
Height                      : 1 080 pixels
Display aspect ratio        : 16:9
Frame rate mode             : Constant
Frame rate                  : 23.976 (24000/1001) FPS
Standard                    : NTSC
Color space                 : YUV
Chroma subsampling          : 4:2:0
Bit depth                   : 8 bits
Scan type                   : Progressive
Bits/(Pixel*Frame)          : 0.483
Stream size                 : 17.6 GiB (84%)
Title                       : Cop Land
Language                    : English
Default                     : Yes
Forced                      : No
Color range                 : Limited
Color primaries             : BT.709
Transfer characteristics    : BT.709
Matrix coefficients         : BT.709

Audio
ID                          : 2
Format                      : DTS
Format/Info                 : Digital Theater Systems
Format profile              : MA / Core
Mode                        : 16
Format settings, Endianness : Big
Codec ID                    : A_DTS
Duration                    : 1 h 50 min
Bit rate mode               : Variable / Constant
Bit rate                    : 4 249 kb/s / 1 509 kb/s
Channel(s)                  : 6 channels
Channel positions           : Front: L C R, Side: L R, LFE
Sampling rate               : 48.0 kHz
Frame rate                  : 93.750 FPS (512 spf)
Bit depth                   : 24 bits
Compression mode            : Lossless / Lossy
Stream size                 : 3.29 GiB (16%)
Title                       : English
Language                    : English
Default                     : Yes
Forced                      : No

Text
ID                          : 3
Format                      : PGS
Muxing mode                 : zlib
Codec ID                    : S_HDMV/PGS
Codec ID/Info               : Picture based subtitle format used on BDs/HD-DVDs
Duration                    : 1 h 36 min
Bit rate                    : 11.9 kb/s
Count of elements           : 2156
Stream size                 : 8.22 MiB (0%)
Title                       : Turkish
Language                    : Turkish
Default                     : Yes
Forced                      : No

[Image: vlcsnap-error422-jpg-e93a945638832f1550d...7fae78.jpg]

[Image: vlcsnap-error566-jpg-112a8c1dc7bd1c28acd...dbf925.jpg]

[Image: tdown.png]

For Only Vip Members

Cop Land (1997) Bluray Remux 1080p AVC DTS-HD MA 5.1 VIP
Reply


Possibly Related Threads…
Thread Author Replies Views Last Post
  Spawn 1997 Director's Cut 1080p BluRay Remux AVC DTS-HD MA 5.1 - BluDragon KAiJu 0 16 05-13-2022, 11:55 AM
Last Post: KAiJu
  In the Land of Women 2007 1080p Blu-ray Remux AVC DTS-HD MA 5.1 - KRaLiMaRKo KAiJu 0 44 04-29-2022, 09:51 AM
Last Post: KAiJu
  Sharpes Justice 1997 1080i BluRay REMUX AVC DD 5 1-EPSiLON KAiJu 0 34 04-13-2022, 12:46 PM
Last Post: KAiJu
  Starflight - The Plane That Couldn't Land 1983 1080p Blu-ray Remux AVC FLAC 2.0 - KRa KAiJu 0 52 04-06-2022, 11:47 AM
Last Post: KAiJu
  Jack Frost 1997 1080p Blu-ray Remux AVC DTS-HD MA 5.1 - KRaLiMaRKo KAiJu 0 61 03-25-2022, 06:26 AM
Last Post: KAiJu

Forum Jump:


Users browsing this thread: 1 Guest(s)

Powered By MyBB
RSS RSS Syndication
Updated By iAndrew | 2022