Thread Rating:
  • 0 Vote(s) - 0 Average
  • 1
  • 2
  • 3
  • 4
  • 5

[-]
Tags
h264 come dd 2020 webdl 1080p evo 1 5 away

  Come Away (2020) WEBDL 1080p DD 5.1 H264-EVO
#1
Come Away (2020) WEBDL 1080p DD 5.1 H264-EVO

[Image: tt5714470.jpg]

[Image: imdb.png]
https://www.imdb.com/title/tt5714470/

[Image: info.png]
General
Unique ID : 194954778104274458480997975127572407912 (0x92AAECABB85155827D4340508560E668)
Complete name : Come.Away.1080p.WEB-DL.DD5.1.H.264-EVO.mkv
Format : Matroska
Format version : Version 4 / Version 2
File size : 3.88 GiB
Duration : 1h 34mn
Overall bit rate : 5 891 Kbps
Encoded date : UTC 2020-11-13 05:01:46
Writing application : mkvmerge v25.0.0 ('Prog Noir') 32-bit
Writing library : libebml v1.3.6 + libmatroska v1.4.9

Video
ID : 1
Format : AVC
Format/Info : Advanced Video Codec
Format profile : [email protected]
Format settings, CABAC : Yes
Format settings, ReFrames : 2 frames
Codec ID : V_MPEG4/ISO/AVC
Duration : 1h 34mn
Bit rate : 5 506 Kbps
Width : 1 920 pixels
Height : 1 080 pixels
Display aspect ratio : 16:9
Frame rate mode : Constant
Frame rate : 23.976 (24000/1001) fps
Color space : YUV
Chroma subsampling : 4:2:0
Bit depth : 8 bits
Scan type : Progressive
Bits/(Pixel*Frame) : 0.111
Stream size : 3.63 GiB (93%)
Writing library : x264 core 155 r2901 7d0ff22
Default : Yes
Forced : No
Color range : Limited
Color primaries : BT.709
Transfer characteristics : BT.709
Matrix coefficients : BT.709

Audio
ID : 2
Format : AC-3
Format/Info : Audio Coding 3
Mode extension : CM (complete main)
Format settings, Endianness : Big
Codec ID : A_AC3
Duration : 1h 34mn
Bit rate mode : Constant
Bit rate : 384 Kbps
Channel(s) : 6 channels
Channel positions : Front: L C R, Side: L R, LFE
Sampling rate : 48.0 KHz
Frame rate : 31.250 fps (1536 spf)
Compression mode : Lossy
Stream size : 259 MiB (7%)
Language : English
Default : Yes
Forced : No

[Image: hA26cy.png]

[Image: uPVnSA.png]

[Image: tdown.png]

For Only Vip Members

How To Become a VIP
Reply


Possibly Related Threads…
Thread Author Replies Views Last Post
  Dont Listen (2020) NF WEBDL 1080p MULTI DDP 5.1 x264-HUS AbrA 0 34 Yesterday, 11:33 AM
Last Post: AbrA
  Mosul (2020) NF WEBDL 1080p MULTI DDP 5.1 x264-HUS AbrA 0 54 11-27-2020, 01:48 PM
Last Post: AbrA
  Belushi 2020 1080p WEB H264-NAISU KAiJu 0 53 11-24-2020, 08:28 AM
Last Post: KAiJu
  A Song to Remember (1945) WEBDL 1080p EN-TR DD 2.0 H264-SbR AbrA 0 81 10-25-2020, 04:57 PM
Last Post: AbrA
  Locked Up - Vis a Vis S01 WEBDL 1080p DUAL DD2.0 H264-BdC admin 2 4,638 10-24-2020, 12:32 PM
Last Post: hema7878

Forum Jump:


Users browsing this thread: 1 Guest(s)

Powered By MyBB
Theme By Audentio Design
Updated By iAndrew | 2018