Thread Rating:
  • 0 Vote(s) - 0 Average
  • 1
  • 2
  • 3
  • 4
  • 5

[-]
Tags
come see 1985 bluray avc 1080p hd ma and 2 remux dts

  Come and See (1985) Bluray Remux 1080p AVC DTS-HD MA 2.0
#1
Come and See (1985) Bluray Remux 1080p AVC DTS-HD MA 2.0

[Image: tt0091251.jpg]

[Image: imdb.png]
https://www.imdb.com/title/tt0091251/

[Image: info.png]
Come and See aka Idi i smotri 1985 RU.mkv
Format                      : Matroska
Format version              : Version 4 / Version 2
File size                   : 34.5 GiB
Duration                    : 2 h 22 min
Overall bit rate mode       : Variable
Overall bit rate            : 34.5 Mb/s
Movie name                  : Come and See aka Idi i smotri
Encoded date                : UTC 2017-10-28 17:39:28
Writing application         : mkvmerge v17.0.0 ('Be Ur Friend') 64-bit
Writing library             : libebml v1.3.5 + libmatroska v1.4.8

Video
ID                          : 1
Format                      : AVC
Format/Info                 : Advanced Video Codec
Format profile              : [email protected]
Format settings, CABAC      : Yes
Format settings, ReFrames   : 3 frames
Format settings, GOP        : M=1, N=23
Codec ID                    : V_MPEG4/ISO/AVC
Duration                    : 2 h 22 min
Bit rate mode               : Variable
Bit rate                    : 33.7 Mb/s
Maximum bit rate            : 38.0 Mb/s
Width                       : 1 920 pixels
Height                      : 1 080 pixels
Display aspect ratio        : 16:9
Frame rate mode             : Constant
Frame rate                  : 23.976 (24000/1001) FPS
Standard                    : NTSC
Color space                 : YUV
Chroma subsampling          : 4:2:0
Bit depth                   : 8 bits
Scan type                   : Progressive
Bits/(Pixel*Frame)          : 0.677
Stream size                 : 33.6 GiB (98%)
Title                       : Come and See aka Idi i smotri
Language                    : Russian
Default                     : Yes
Forced                      : No
Color range                 : Limited
Color primaries             : BT.709
Transfer characteristics    : BT.709
Matrix coefficients         : BT.709

Audio
ID                          : 2
Format                      : DTS
Format/Info                 : Digital Theater Systems
Format profile              : MA / Core
Mode                        : 16
Format settings, Endianness : Big
Codec ID                    : A_DTS
Duration                    : 2 h 22 min
Bit rate mode               : Variable / Constant
Bit rate                    : 841 kb/s / 510 kb/s
Channel(s)                  : 2 channels
Channel positions           : Front: L R
Sampling rate               : 48.0 kHz
Frame rate                  : 93.750 FPS (512 spf)
Bit depth                   : 16 bits
Compression mode            : Lossless / Lossy
Stream size                 : 859 MiB (2%)
Title                       : Russian
Language                    : Russian
Default                     : Yes
Forced                      : No

Text
ID                          : 3
Format                      : PGS
Muxing mode                 : zlib
Codec ID                    : S_HDMV/PGS
Codec ID/Info               : Picture based subtitle format used on BDs/HD-DVDs
Duration                    : 2 h 20 min
Bit rate                    : 10.5 kb/s
Count of elements           : 1230
Stream size                 : 10.6 MiB (0%)
Title                       : Turkish
Language                    : Turkish
Default                     : Yes
Forced                      : No

[Image: 32896681397_03c1e37f5d_b.jpg]

[Image: 47051056494_6be6efb9af_b.jpg]

[Image: tdown.png]

For Only Vip Members

Come and See (1985) Bluray Remux 1080p AVC DTS-HD MA 2.0 VIP
Reply


Possibly Related Threads…
Thread Author Replies Views Last Post
  Clue 1985 1080p Remux AVC DTS-HD MA 2 0-playBD KAiJu 0 56 11-27-2020, 12:07 PM
Last Post: KAiJu
  Kiss of the Spider Woman (1985) Bluray Remux 1080p AVC DTS 5.1 admin 0 755 08-30-2019, 11:41 AM
Last Post: admin
  Missing in Action 02 The Beginning (1985) Bluray Remux 1080p AVC DTS-HD MA 1.0 admin 0 877 08-22-2019, 08:46 AM
Last Post: admin
  Clue (1985) Bluray Remux 1080p AVC DTS-HD MA 2.0 admin 0 731 08-08-2019, 07:15 AM
Last Post: admin
  Out of Africa (1985) Bluray Remux 1080p AVC DTS-HD MA 5.1 admin 0 746 07-30-2019, 11:33 AM
Last Post: admin

Forum Jump:


Users browsing this thread: 1 Guest(s)

Powered By MyBB
Theme By Audentio Design
Updated By iAndrew | 2018