Thread Rating:
  • 0 Vote(s) - 0 Average
  • 1
  • 2
  • 3
  • 4
  • 5

[-]
Tags
dd bluray skin avc cold 1080p 2017 1 remux 5

  Cold Skin (2017) Bluray Remux 1080p AVC DD 5.1
#1
Cold Skin (2017) Bluray Remux 1080p AVC DD 5.1

[Image: tt1034385.jpg]

[Image: imdb.png]
https://www.imdb.com/title/tt1034385/

[Image: info.png]
Cold Skin 2017 EN.mkv
Format                      : Matroska
Format version              : Version 4 / Version 2
File size                   : 14.4 GiB
Duration                    : 1 h 47 min
Overall bit rate            : 19.2 Mb/s
Movie name                  : Cold Skin
Encoded date                : UTC 2018-02-22 19:43:46
Writing application         : mkvmerge v20.0.0 ('I Am The Sun') 64-bit
Writing library             : libebml v1.3.5 + libmatroska v1.4.8

Video
ID                          : 1
Format                      : AVC
Format/Info                 : Advanced Video Codec
Format profile              : [email protected]
Format settings             : CABAC / 4 Ref Frames
Format settings, CABAC      : Yes
Format settings, ReFrames   : 4 frames
Format settings, GOP        : M=3, N=24
Codec ID                    : V_MPEG4/ISO/AVC
Duration                    : 1 h 46 min
Bit rate mode               : Constant
Bit rate                    : 19.0 Mb/s
Nominal bit rate            : 20.0 Mb/s
Width                       : 1 920 pixels
Height                      : 1 080 pixels
Display aspect ratio        : 16:9
Frame rate mode             : Constant
Frame rate                  : 24.000 FPS
Standard                    : NTSC
Color space                 : YUV
Chroma subsampling          : 4:2:0
Bit depth                   : 8 bits
Scan type                   : Progressive
Bits/(Pixel*Frame)          : 0.382
Stream size                 : 14.1 GiB (98%)
Title                       : Cold Skin
Language                    : English
Default                     : Yes
Forced                      : No
Color range                 : Limited
Color primaries             : BT.709
Transfer characteristics    : BT.709
Matrix coefficients         : BT.709

Audio
ID                          : 2
Format                      : AC-3
Format/Info                 : Audio Coding 3
Codec ID                    : A_AC3
Duration                    : 1 h 47 min
Bit rate mode               : Constant
Bit rate                    : 384 kb/s
Channel(s)                  : 6 channels
Channel positions           : Front: L C R, Side: L R, LFE
Sampling rate               : 48.0 kHz
Frame rate                  : 31.250 FPS (1536 SPF)
Bit depth                   : 16 bits
Compression mode            : Lossy
Stream size                 : 295 MiB (2%)
Title                       : English
Language                    : English
Service kind                : Complete Main
Default                     : Yes
Forced                      : No

Text
ID                          : 3
Format                      : PGS
Muxing mode                 : zlib
Codec ID                    : S_HDMV/PGS
Codec ID/Info               : Picture based subtitle format used on BDs/HD-DVDs
Duration                    : 1 h 37 min
Bit rate                    : 12.3 kb/s
Count of elements           : 958
Stream size                 : 8.55 MiB (0%)
Title                       : Turkish
Language                    : Turkish
Default                     : Yes
Forced                      : No

[Image: wVd8k2.jpg]

[Image: j55TI6.jpg]

[Image: tdown.png]

For Only Vip Members

Cold Skin (2017) Bluray Remux 1080p AVC DD 5.1 VIP
Reply


Possibly Related Threads…
Thread Author Replies Views Last Post
  Cold Pursuit (2019) Bluray Remux 1080p AVC TrueHD 7.1 admin 0 746 07-30-2019, 07:48 AM
Last Post: admin
  Tremors A Cold Day in Hell (2018) Bluray Remux 1080p DTS-HD MA 5.1 admin 0 458 07-22-2019, 01:15 PM
Last Post: admin
  Skin Trade (2014) Bluray Remux 1080p AVC DTS-HD MA 5.1 admin 0 370 06-14-2019, 09:40 AM
Last Post: admin

Forum Jump:


Users browsing this thread: 1 Guest(s)

Powered By MyBB
Theme By Audentio Design
Updated By iAndrew | 2018