Thread Rating:
  • 0 Vote(s) - 0 Average
  • 1
  • 2
  • 3
  • 4
  • 5

[-]
Tags
bluray avc 1080p 1988 cocktail hd ma 1 remux dts 5

 
  Cocktail (1988) Bluray Remux 1080p AVC DTS-HD MA 5.1
#1
Cocktail (1988) Bluray Remux 1080p AVC DTS-HD MA 5.1

[Image: tt0094889.jpg]

[Image: imdb.png]
https://www.imdb.com/title/tt0094889/

[Image: info.png]
Cocktail 1988 EN.mkv
Format                      : Matroska
Format version              : Version 4 / Version 2
File size                   : 26.1 GiB
Duration                    : 1 h 43 min
Overall bit rate mode       : Variable
Overall bit rate            : 36.1 Mb/s
Movie name                  : Cocktail
Encoded date                : UTC 2017-11-27 18:25:38
Writing application         : mkvmerge v18.0.0 ('Apricity') 64-bit
Writing library             : libebml v1.3.5 + libmatroska v1.4.8

Video
ID                          : 1
Format                      : AVC
Format/Info                 : Advanced Video Codec
Format profile              : [email protected]
Format settings, CABAC      : Yes
Format settings, ReFrames   : 4 frames
Codec ID                    : V_MPEG4/ISO/AVC
Duration                    : 1 h 43 min
Bit rate mode               : Variable
Bit rate                    : 31.9 Mb/s
Maximum bit rate            : 34.0 Mb/s
Width                       : 1 920 pixels
Height                      : 1 080 pixels
Display aspect ratio        : 16:9
Frame rate mode             : Constant
Frame rate                  : 23.976 (24000/1001) FPS
Color space                 : YUV
Chroma subsampling          : 4:2:0
Bit depth                   : 8 bits
Scan type                   : Progressive
Bits/(Pixel*Frame)          : 0.641
Stream size                 : 23.0 GiB (88%)
Title                       : Cocktail
Language                    : English
Default                     : Yes
Forced                      : No

Audio
ID                          : 2
Format                      : DTS
Format/Info                 : Digital Theater Systems
Format profile              : MA / Core
Mode                        : 16
Format settings, Endianness : Big
Codec ID                    : A_DTS
Duration                    : 1 h 43 min
Bit rate mode               : Variable / Constant
Bit rate                    : 4 189 kb/s / 1 509 kb/s
Channel(s)                  : 6 channels
Channel positions           : Front: L C R, Side: L R, LFE
Sampling rate               : 48.0 kHz
Frame rate                  : 93.750 FPS (512 spf)
Bit depth                   : 24 bits
Compression mode            : Lossless / Lossy
Stream size                 : 3.03 GiB (12%)
Title                       : English
Language                    : English
Default                     : Yes
Forced                      : No

Text #1
ID                          : 3
Format                      : PGS
Muxing mode                 : zlib
Codec ID                    : S_HDMV/PGS
Codec ID/Info               : Picture based subtitle format used on BDs/HD-DVDs
Duration                    : 1 h 38 min
Bit rate                    : 38.8 kb/s
Count of elements           : 2774
Stream size                 : 27.5 MiB (0%)
Title                       : English
Language                    : English
Default                     : No
Forced                      : No

Text #2
ID                          : 4
Format                      : PGS
Muxing mode                 : zlib
Codec ID                    : S_HDMV/PGS
Codec ID/Info               : Picture based subtitle format used on BDs/HD-DVDs
Duration                    : 1 h 38 min
Bit rate                    : 29.7 kb/s
Count of elements           : 2038
Stream size                 : 21.0 MiB (0%)
Title                       : Turkish
Language                    : Turkish
Default                     : Yes
Forced                      : No

[Image: 46924013105_5dd1c68a10_b.jpg]

[Image: 46924014365_399737a38b_b.jpg]

[Image: tdown.png]

For Only Vip Members

Cocktail (1988) Bluray Remux 1080p AVC DTS-HD MA 5.1 VIP
Reply


Possibly Related Threads…
Thread Author Replies Views Last Post
  Alien From L A 1988 1080p Blu-ray Remux AVC DTS-HD MA 2 0-HDT KAiJu 0 3 05-18-2022, 01:19 PM
Last Post: KAiJu
  FleshEater 1988 1080p Blu-ray Remux AVC DTS-HD MA 2 0-HDT KAiJu 0 29 04-24-2022, 10:06 AM
Last Post: KAiJu
  The Seventh Sign 1988 1080p Blu-ray Remux AVC LPCM 2 0-HDT KAiJu 0 37 04-23-2022, 02:32 PM
Last Post: KAiJu
  Heart of Midnight 1988 BluRay Remux 1080p AVC DTS-HD MA 2 0-DIESEL KAiJu 0 43 04-12-2022, 06:29 AM
Last Post: KAiJu
  The Accused 1988 1080p Remux AVC TrueHD 5 1-playBD KAiJu 0 40 04-10-2022, 10:43 PM
Last Post: KAiJu

Forum Jump:


Users browsing this thread: 1 Guest(s)

Powered By MyBB
RSS RSS Syndication
Updated By iAndrew | 2022