Thread Rating:
  • 0 Vote(s) - 0 Average
  • 1
  • 2
  • 3
  • 4
  • 5

[-]
Tags
chips bluray avc 1080p 2017 hd ma 1 remux dts 5

  Chips (2017) Bluray Remux 1080p AVC DTS-HD MA 5.1
#1
Chips (2017) Bluray Remux 1080p AVC DTS-HD MA 5.1

[Image: tt0493405.jpg]

[Image: imdb.png]
https://www.imdb.com/title/tt0493405/

[Image: info.png]
Chips 2017 EN.mkv
Format                      : Matroska
Format version              : Version 4 / Version 2
File size                   : 26.6 GiB
Duration                    : 1 h 40 min
Overall bit rate mode       : Variable
Overall bit rate            : 37.8 Mb/s
Movie name                  : Chips
Encoded date                : UTC 2017-07-16 16:54:58
Writing application         : mkvmerge v13.0.0 ('The Juggler') 64bit
Writing library             : libebml v1.3.4 + libmatroska v1.4.5

Video
ID                          : 1
Format                      : AVC
Format/Info                 : Advanced Video Codec
Format profile              : [email protected]
Format settings, CABAC      : Yes
Format settings, ReFrames   : 4 frames
Codec ID                    : V_MPEG4/ISO/AVC
Duration                    : 1 h 40 min
Bit rate mode               : Variable
Bit rate                    : 33.8 Mb/s
Maximum bit rate            : 36.0 Mb/s
Width                       : 1 920 pixels
Height                      : 1 080 pixels
Display aspect ratio        : 16:9
Frame rate mode             : Constant
Frame rate                  : 23.976 (24000/1001) FPS
Color space                 : YUV
Chroma subsampling          : 4:2:0
Bit depth                   : 8 bits
Scan type                   : Progressive
Bits/(Pixel*Frame)          : 0.681
Stream size                 : 23.8 GiB (89%)
Title                       : Chips
Language                    : English
Default                     : Yes
Forced                      : No

Audio
ID                          : 2
Format                      : DTS
Format/Info                 : Digital Theater Systems
Format profile              : MA / Core
Mode                        : 16
Format settings, Endianness : Big
Codec ID                    : A_DTS
Duration                    : 1 h 40 min
Bit rate mode               : Variable / Constant
Bit rate                    : 3 942 kb/s / 1 509 kb/s
Channel(s)                  : 6 channels
Channel positions           : Front: L C R, Side: L R, LFE
Sampling rate               : 48.0 kHz
Frame rate                  : 93.750 FPS (512 spf)
Bit depth                   : 24 bits
Compression mode            : Lossless / Lossy
Stream size                 : 2.78 GiB (10%)
Title                       : English
Language                    : English
Default                     : Yes
Forced                      : No

Text #1
ID                          : 3
Format                      : PGS
Muxing mode                 : zlib
Codec ID                    : S_HDMV/PGS
Codec ID/Info               : Picture based subtitle format used on BDs/HD-DVDs
Duration                    : 1 h 39 min
Bit rate                    : 54.5 kb/s
Count of elements           : 4080
Stream size                 : 38.9 MiB (0%)
Title                       : English
Language                    : English
Default                     : No
Forced                      : No

Text #2
ID                          : 4
Format                      : PGS
Muxing mode                 : zlib
Codec ID                    : S_HDMV/PGS
Codec ID/Info               : Picture based subtitle format used on BDs/HD-DVDs
Duration                    : 1 h 40 min
Bit rate                    : 46.3 kb/s
Count of elements           : 3706
Stream size                 : 33.2 MiB (0%)
Title                       : Turkish
Language                    : Turkish
Default                     : Yes
Forced                      : No

[Image: 32896618717_2b09684d2d_b.jpg]

[Image: 46924257055_a7b2bc55ee_b.jpg]

[Image: tdown.png]

For Only Vip Members

Chips (2017) Bluray Remux 1080p AVC DTS-HD MA 5.1 VIP
Reply


Forum Jump:


Users browsing this thread: 1 Guest(s)

Powered By MyBB
Theme By Audentio Design
Updated By iAndrew | 2018