Thread Rating:
  • 0 Vote(s) - 0 Average
  • 1
  • 2
  • 3
  • 4
  • 5

[-]
Tags
6 1984 children bluray 1996 avc 1080p of the 4 hd ma 1 corn 2 remux dts 5 3

  Children of the Corn 1-2-3-4-5-6 (1984-1996) Bluray Remux 1080p AVC DTS-HD MA 5.1
#1
Children of the Corn 1-2-3-4-5-6 (1984-1996) Bluray Remux 1080p AVC DTS-HD MA 5.1

[Image: tt0087050.jpg]

[Image: imdb.png]
https://www.imdb.com/title/tt0087050/
https://www.imdb.com/title/tt0106557/
https://www.imdb.com/title/tt0109415/
https://www.imdb.com/title/tt0115885/
https://www.imdb.com/title/tt0150111/
https://www.imdb.com/title/tt0177625/

[Image: info.png]
Children of the Corn 01 1984 EN.mkv
Format                      : Matroska
Format version              : Version 4 / Version 2
File size                   : 25.7 GiB
Duration                    : 1 h 32 min
Overall bit rate mode       : Variable
Overall bit rate            : 39.9 Mb/s
Movie name                  : Children of the Corn 01
Encoded date                : UTC 2015-01-12 15:48:54
Writing application         : mkvmerge v7.5.0 ('Glass Culture') 64bit built on Jan  4 2015 16:48:44
Writing library             : libebml v1.3.1 + libmatroska v1.4.2

Video
ID                          : 1
Format                      : AVC
Format/Info                 : Advanced Video Codec
Format profile              : [email protected]
Format settings, CABAC      : Yes
Format settings, ReFrames   : 4 frames
Codec ID                    : V_MPEG4/ISO/AVC
Duration                    : 1 h 32 min
Bit rate mode               : Variable
Bit rate                    : 35.8 Mb/s
Maximum bit rate            : 38.0 Mb/s
Width                       : 1 920 pixels
Height                      : 1 080 pixels
Display aspect ratio        : 16:9
Frame rate mode             : Constant
Frame rate                  : 23.976 (24000/1001) FPS
Color space                 : YUV
Chroma subsampling          : 4:2:0
Bit depth                   : 8 bits
Scan type                   : Progressive
Bits/(Pixel*Frame)          : 0.720
Stream size                 : 23.0 GiB (90%)
Title                       : Children of the Corn
Language                    : English
Default                     : Yes
Forced                      : No

Audio
ID                          : 2
Format                      : DTS
Format/Info                 : Digital Theater Systems
Format profile              : MA / Core
Mode                        : 16
Format settings, Endianness : Big
Codec ID                    : A_DTS
Duration                    : 1 h 32 min
Bit rate mode               : Variable / Constant
Bit rate                    : 4 099 kb/s / 1 509 kb/s
Channel(s)                  : 6 channels
Channel positions           : Front: L C R, Side: L R, LFE
Sampling rate               : 48.0 kHz
Frame rate                  : 93.750 FPS (512 spf)
Bit depth                   : 24 bits
Compression mode            : Lossless / Lossy
Stream size                 : 2.64 GiB (10%)
Title                       : English
Language                    : English
Default                     : Yes
Forced                      : No

Text #1
ID                          : 3
Format                      : PGS
Muxing mode                 : zlib
Codec ID                    : S_HDMV/PGS
Codec ID/Info               : Picture based subtitle format used on BDs/HD-DVDs
Duration                    : 1 h 28 min
Bit rate                    : 9 404 b/s
Count of elements           : 2013
Stream size                 : 5.93 MiB (0%)
Title                       : English
Language                    : English
Default                     : No
Forced                      : No

Text #2
ID                          : 4
Format                      : PGS
Muxing mode                 : zlib
Codec ID                    : S_HDMV/PGS
Codec ID/Info               : Picture based subtitle format used on BDs/HD-DVDs
Duration                    : 1 h 27 min
Bit rate                    : 8 791 b/s
Count of elements           : 1444
Stream size                 : 5.49 MiB (0%)
Title                       : Turkish
Language                    : Turkish
Default                     : Yes
Forced                      : No

[Image: vlcsnap-error175-jpg-340c8d4d26c5d9b007a...ec857f.jpg]

[Image: vlcsnap-error596-jpg-64bce4f051383512375...58bfd4.jpg]

[Image: tdown.png]

For Only Vip Members

Children of the Corn 1-2-3-4-5-6 (1984-1996) Bluray Remux 1080p AVC DTS-HD MA 5.1 VIP
Reply


Possibly Related Threads…
Thread Author Replies Views Last Post
  The Frighteners 15th Anniversary Edition (1996) Bluray REMUX 1080p AVC DTS-HD MA 5.1- AbrA 0 225 08-31-2020, 08:47 PM
Last Post: AbrA
  Paris Texas (1984) Bluray REMUX 1080p TR-EN AVC DTS-HD MA 5.1-BdC admin 0 817 01-08-2020, 03:52 PM
Last Post: admin
  The Chamber (1996) Bluray Remux 1080p AVC DTS-HD MA 5.1 admin 1 904 10-24-2019, 12:35 PM
Last Post: Nozirlx
  Mary Reilly (1996) Bluray Remux 1080p AVC DD 2.0 admin 0 776 08-31-2019, 11:24 AM
Last Post: admin
  The Fan (1996) Bluray Remux 1080p AVC DTS-HD MA 5.1 admin 0 824 08-24-2019, 12:28 PM
Last Post: admin

Forum Jump:


Users browsing this thread: 1 Guest(s)

Powered By MyBB
Theme By Audentio Design
Updated By iAndrew | 2018