Thread Rating:
  • 0 Vote(s) - 0 Average
  • 1
  • 2
  • 3
  • 4
  • 5

[-]
Tags
copy bluray certified 1080 avc hd ma 1 remux 2010 dts 5

  Certified Copy (2010) Bluray Remux 1080 AVC DTS-HD MA 5.1
#1
Certified Copy (2010) Bluray Remux 1080 AVC DTS-HD MA 5.1

[Image: tt1020773.jpg]

[Image: imdb.png]
https://www.imdb.com/title/tt1020773/

[Image: info.png]
Certified Copy aka Copie Conforme 2010 FR EN.mkv
Format                      : Matroska
Format version              : Version 4 / Version 2
File size                   : 22.8 GiB
Duration                    : 1 h 46 min
Overall bit rate mode       : Variable
Overall bit rate            : 30.6 Mb/s
Movie name                  : Certified Copy aka Copie Conforme
Encoded date                : UTC 2016-10-05 10:07:03
Writing application         : mkvmerge v8.3.0 ('Over the Horizon') 64bit
Writing library             : libebml v1.3.1 + libmatroska v1.4.2

Video
ID                          : 1
Format                      : AVC
Format/Info                 : Advanced Video Codec
Format profile              : [email protected]
Format settings, CABAC      : Yes
Format settings, ReFrames   : 4 frames
Codec ID                    : V_MPEG4/ISO/AVC
Duration                    : 1 h 46 min
Bit rate mode               : Variable
Bit rate                    : 26.6 Mb/s
Maximum bit rate            : 37.0 Mb/s
Width                       : 1 920 pixels
Height                      : 1 080 pixels
Display aspect ratio        : 16:9
Frame rate mode             : Constant
Frame rate                  : 23.976 (24000/1001) FPS
Color space                 : YUV
Chroma subsampling          : 4:2:0
Bit depth                   : 8 bits
Scan type                   : Progressive
Bits/(Pixel*Frame)          : 0.536
Stream size                 : 19.9 GiB (87%)
Title                       : Certified Copy aka Copie Conforme
Language                    : French
Default                     : Yes
Forced                      : No

Audio
ID                          : 2
Format                      : DTS
Format/Info                 : Digital Theater Systems
Format profile              : MA / Core
Mode                        : 16
Format settings, Endianness : Big
Codec ID                    : A_DTS
Duration                    : 1 h 46 min
Bit rate mode               : Variable / Constant
Bit rate                    : 3 840 kb/s / 1 509 kb/s
Channel(s)                  : 6 channels
Channel positions           : Front: L C R, Side: L R, LFE
Sampling rate               : 48.0 kHz
Frame rate                  : 93.750 FPS (512 spf)
Bit depth                   : 24 bits
Compression mode            : Lossless / Lossy
Stream size                 : 2.91 GiB (13%)
Title                       : French/English
Language                    : French
Default                     : Yes
Forced                      : No

Text #1
ID                          : 3
Format                      : PGS
Muxing mode                 : zlib
Codec ID                    : S_HDMV/PGS
Codec ID/Info               : Picture based subtitle format used on BDs/HD-DVDs
Duration                    : 1 h 41 min
Bit rate                    : 3 511 b/s
Count of elements           : 1220
Stream size                 : 2.54 MiB (0%)
Title                       : English
Language                    : English
Default                     : No
Forced                      : No

Text #2
ID                          : 4
Format                      : PGS
Muxing mode                 : zlib
Codec ID                    : S_HDMV/PGS
Codec ID/Info               : Picture based subtitle format used on BDs/HD-DVDs
Duration                    : 1 h 39 min
Bit rate                    : 13.6 kb/s
Count of elements           : 2404
Stream size                 : 9.71 MiB (0%)
Title                       : Turkish
Language                    : Turkish
Default                     : Yes
Forced                      : No

[Image: vlcsnap-error234-jpg-d3e438d0dd72c32847a...5ee1c7.jpg]

[Image: vlcsnap-error635-jpg-0846c7b4d6267d24a07...e8293b.jpg]

[Image: tdown.png]

For Only Vip Members

Certified Copy (2010) Bluray Remux 1080 AVC DTS-HD MA 5.1 VIP
Reply


Possibly Related Threads…
Thread Author Replies Views Last Post
  Vicky Cristina Barcelona (2008) Bluray Remux 1080 AVC DTS-HD MA 3.0 admin 0 750 08-23-2019, 01:27 PM
Last Post: admin
  Never Let Me Go (2010) Bluray Remux 1080p AVC DTS-HD MA 5.1 admin 0 961 06-03-2019, 02:09 PM
Last Post: admin
  Roman J Israel Esq (2017) Bluray Remux 1080 AVC DTS-HD MA 5.1 admin 0 1,015 05-19-2019, 02:56 PM
Last Post: admin
  Pet Sematary 1-2 (1989-1992) Bluray Remux 1080 AVC DTS-HD MA 5.1 admin 0 1,067 05-14-2019, 04:25 PM
Last Post: admin
  Morgan (2016) Bluray Remux TR-EN 1080 AVC DTS 5.1 admin 0 895 03-29-2019, 02:21 PM
Last Post: admin

Forum Jump:


Users browsing this thread: 1 Guest(s)

Powered By MyBB
Theme By Audentio Design
Updated By iAndrew | 2018