Thread Rating:
  • 0 Vote(s) - 0 Average
  • 1
  • 2
  • 3
  • 4
  • 5

[-]
Tags
bluray avc 1080p cash en hd ma 1 remux 2010 dts 5 tr

  Cash (2010) Bluray Remux 1080p TR-EN AVC DTS-HD MA 5.1
#1
Cash (2010) Bluray Remux 1080p TR-EN AVC DTS-HD MA 5.1

[Image: tt1106860.jpg]

[Image: imdb.png]
https://www.imdb.com/title/tt1106860/

[Image: info.png]
Cash 2010 TR EN.mkv
Format                      : Matroska
Format version              : Version 4 / Version 2
File size                   : 30.4 GiB
Duration                    : 1 h 47 min
Overall bit rate            : 40.4 Mb/s
Encoded date                : UTC 2014-06-12 17:15:03
Writing application         : mkvmerge v7.0.0 ('Where We Going') 64bit built on Jun  9 2014 15:16:27
Writing library             : libebml v1.3.0 + libmatroska v1.4.1

Video
ID                          : 1
Format                      : VC-1
Format profile              : [email protected]
Codec ID                    : V_MS/VFW/FOURCC / WVC1
Codec ID/Hint               : Microsoft
Duration                    : 1 h 47 min
Bit rate                    : 32.9 Mb/s
Width                       : 1 920 pixels
Height                      : 1 080 pixels
Display aspect ratio        : 16:9
Frame rate mode             : Constant
Frame rate                  : 23.976 (24000/1001) FPS
Color space                 : YUV
Chroma subsampling          : 4:2:0
Bit depth                   : 8 bits
Scan type                   : Progressive
Compression mode            : Lossy
Bits/(Pixel*Frame)          : 0.662
Stream size                 : 24.8 GiB (81%)
Title                       : Cash
Language                    : English
Default                     : Yes
Forced                      : No

Audio #1
ID                          : 2
Format                      : DTS
Format/Info                 : Digital Theater Systems
Format profile              : MA / Core
Mode                        : 16
Format settings, Endianness : Big
Codec ID                    : A_DTS
Duration                    : 1 h 47 min
Bit rate mode               : Variable / Constant
Bit rate                    : 3 603 kb/s / 1 509 kb/s
Channel(s)                  : 6 channels
Channel positions           : Front: L C R, Side: L R, LFE
Sampling rate               : 48.0 kHz
Frame rate                  : 93.750 FPS (512 spf)
Bit depth                   : 24 bits
Compression mode            : Lossless / Lossy
Stream size                 : 2.71 GiB (9%)
Title                       : Turkish
Language                    : Turkish
Default                     : No
Forced                      : No

Audio #2
ID                          : 3
Format                      : DTS
Format/Info                 : Digital Theater Systems
Format profile              : MA / Core
Mode                        : 16
Format settings, Endianness : Big
Codec ID                    : A_DTS
Duration                    : 1 h 47 min
Bit rate mode               : Variable / Constant
Bit rate                    : 3 840 kb/s / 1 509 kb/s
Channel(s)                  : 6 channels
Channel positions           : Front: L C R, Side: L R, LFE
Sampling rate               : 48.0 kHz
Frame rate                  : 93.750 FPS (512 spf)
Bit depth                   : 24 bits
Compression mode            : Lossless / Lossy
Stream size                 : 2.91 GiB (10%)
Title                       : English
Language                    : English
Default                     : Yes
Forced                      : No

Text #1
ID                          : 4
Format                      : PGS
Muxing mode                 : zlib
Codec ID                    : S_HDMV/PGS
Codec ID/Info               : Picture based subtitle format used on BDs/HD-DVDs
Duration                    : 1 h 41 min
Bit rate                    : 20.7 kb/s
Count of elements           : 2256
Stream size                 : 15.1 MiB (0%)
Title                       : Turkish
Language                    : Turkish
Default                     : Yes
Forced                      : No

Text #2
ID                          : 5
Format                      : PGS
Muxing mode                 : zlib
Codec ID                    : S_HDMV/PGS
Codec ID/Info               : Picture based subtitle format used on BDs/HD-DVDs
Duration                    : 1 h 41 min
Bit rate                    : 20.4 kb/s
Count of elements           : 2303
Stream size                 : 14.9 MiB (0%)
Title                       : English
Language                    : English
Default                     : No
Forced                      : No

[Image: vlcsnap-error576-jpg-36f41fbb470e4956a97...e29756.jpg]

[Image: vlcsnap-error708-jpg-a8fdb76afa3bf5067c3...73154c.jpg]

[Image: tdown.png]

For Only Vip Members

Cash (2010) Bluray Remux 1080p TR-EN AVC DTS-HD MA 5.1 VIP
Reply


Possibly Related Threads…
Thread Author Replies Views Last Post
  Tango And Cash (1989) Bluray REMUX 1080p VC-1 TrueHD 5.1-HUSe AbrA 0 397 07-14-2020, 05:08 PM
Last Post: AbrA
  Never Let Me Go (2010) Bluray Remux 1080p AVC DTS-HD MA 5.1 admin 0 941 06-03-2019, 02:09 PM
Last Post: admin
  Tango And Cash (1989) Bluray Remux 1080p VC-1 TrueHD 5.1 admin 0 919 05-20-2019, 10:19 AM
Last Post: admin

Forum Jump:


Users browsing this thread: 1 Guest(s)

Powered By MyBB
Theme By Audentio Design
Updated By iAndrew | 2018