Thread Rating:
  • 0 Vote(s) - 0 Average
  • 1
  • 2
  • 3
  • 4
  • 5

[-]
Tags
epic underpants bluray avc 1080p first 2017 the en captain movie hd ma remux dts tr

 
  Captain Underpants The First Epic Movie (2017) Bluray Remux 1080p TR-EN AVC DTS-HD MA
#1
Captain Underpants The First Epic Movie (2017) Bluray Remux 1080p TR-EN AVC DTS-HD MA 5.1

[Image: tt2091256.jpg]

[Image: imdb.png]
https://www.imdb.com/title/tt2091256/

[Image: info.png]
Captain Underpants The First Epic Movie 2017 TR EN.mkv
Format                      : Matroska
Format version              : Version 4 / Version 2
File size                   : 20.2 GiB
Duration                    : 1 h 28 min
Overall bit rate mode       : Variable
Overall bit rate            : 32.7 Mb/s
Movie name                  : Captain Underpants: The First Epic Movie
Encoded date                : UTC 2017-10-17 13:07:52
Writing application         : mkvmerge v17.0.0 ('Be Ur Friend') 64-bit
Writing library             : libebml v1.3.5 + libmatroska v1.4.8

Video
ID                          : 1
Format                      : AVC
Format/Info                 : Advanced Video Codec
Format profile              : [email protected]
Format settings, CABAC      : Yes
Format settings, ReFrames   : 2 frames
Codec ID                    : V_MPEG4/ISO/AVC
Duration                    : 1 h 28 min
Bit rate mode               : Variable
Bit rate                    : 27.1 Mb/s
Width                       : 1 920 pixels
Height                      : 1 080 pixels
Display aspect ratio        : 16:9
Frame rate mode             : Constant
Frame rate                  : 23.976 (24000/1001) FPS
Color space                 : YUV
Chroma subsampling          : 4:2:0
Bit depth                   : 8 bits
Scan type                   : Progressive
Bits/(Pixel*Frame)          : 0.546
Stream size                 : 16.8 GiB (83%)
Title                       : Captain Underpants: The First Epic Movie
Language                    : English
Default                     : Yes
Forced                      : No

Audio #1
ID                          : 2
Format                      : DTS
Format/Info                 : Digital Theater Systems
Format profile              : MA / ES Matrix / Core
Mode                        : 16
Format settings, Endianness : Big
Codec ID                    : A_DTS
Duration                    : 1 h 28 min
Bit rate mode               : Variable / Constant / Constant
Bit rate                    : 5 087 kb/s / 1 509 kb/s / 1 509 kb/s
Channel(s)                  : 8 channels / 7 channels / 6 channels
Channel positions           : Front: L C R, Side: L R, Back: L R, LFE / Front: L C R, Side: L R, Back: C, LFE / Front: L C R, Side: L R, LFE
Sampling rate               : 48.0 kHz
Frame rate                  : 93.750 FPS (512 spf)
Bit depth                   : 24 bits
Compression mode            : Lossless / Lossy / Lossy
Stream size                 : 3.15 GiB (16%)
Title                       : English
Language                    : English
Default                     : Yes
Forced                      : No

Audio #2
ID                          : 3
Format                      : AC-3
Format/Info                 : Audio Coding 3
Format settings, Endianness : Big
Codec ID                    : A_AC3
Duration                    : 1 h 28 min
Bit rate mode               : Constant
Bit rate                    : 448 kb/s
Channel(s)                  : 6 channels
Channel positions           : Front: L C R, Side: L R, LFE
Sampling rate               : 48.0 kHz
Frame rate                  : 31.250 FPS (1536 spf)
Bit depth                   : 16 bits
Compression mode            : Lossy
Stream size                 : 284 MiB (1%)
Title                       : Turkish
Language                    : Turkish
Service kind                : Complete Main
Default                     : No
Forced                      : No

Text #1
ID                          : 4
Format                      : PGS
Muxing mode                 : zlib
Codec ID                    : S_HDMV/PGS
Codec ID/Info               : Picture based subtitle format used on BDs/HD-DVDs
Duration                    : 1 h 20 min
Bit rate                    : 48.4 kb/s
Count of elements           : 2912
Stream size                 : 28.0 MiB (0%)
Title                       : English
Language                    : English
Default                     : No
Forced                      : No

Text #2
ID                          : 5
Format                      : PGS
Muxing mode                 : zlib
Codec ID                    : S_HDMV/PGS
Codec ID/Info               : Picture based subtitle format used on BDs/HD-DVDs
Duration                    : 1 h 27 min
Bit rate                    : 44.5 kb/s
Count of elements           : 2962
Stream size                 : 27.9 MiB (0%)
Title                       : Turkish
Language                    : Turkish
Default                     : Yes
Forced                      : No

[Image: vlcsnap-error135-jpg-a304a44a91150092181...e7d8d2.jpg]

[Image: vlcsnap-error977-jpg-20909befbafd953dd31...1b6f2b.jpg]

[Image: tdown.png]

For Only Vip Members

Captain Underpants The First Epic Movie (2017) Bluray Remux 1080p TR-EN AVC DTS-HD MA VIP
Reply


Possibly Related Threads…
Thread Author Replies Views Last Post
  PAW Patrol The Movie 2021 1080p BluRay REMUX AVC Atmos-TRiToN KAiJu 0 32 10-29-2021, 09:58 PM
Last Post: KAiJu
  The SpongeBob Movie Sponge on the Run 2020 1080p Remux AVC DTS-HD MA 5.1-playBD KAiJu 0 89 07-16-2021, 06:50 AM
Last Post: KAiJu
  The Spongebob Squarepants Movie (2004) Bluray REMUX 1080p AVC DTS-HD MA 5.1-UnKn0wn AbrA 0 117 06-02-2021, 07:25 PM
Last Post: AbrA
  The Puppetoon Movie 1987 1080p Blu-ray Remux AVC DTS-HD MA 4 0 - KRaLiMaRKo KAiJu 0 100 05-20-2021, 07:07 AM
Last Post: KAiJu
  Constantine City of Demons The Movie (2018) Bluray REMUX 1080p TR-EN AVC DTS-HD MA 5. admin 0 1,308 12-29-2019, 04:26 PM
Last Post: admin

Forum Jump:


Users browsing this thread: 1 Guest(s)

Powered By MyBB
RSS RSS Syndication
Updated By iAndrew | 2021