Thread Rating:
  • 0 Vote(s) - 0 Average
  • 1
  • 2
  • 3
  • 4
  • 5

[-]
Tags
bluray avc 1080p 2016 fantastic captain hd ma 1 remux dts 5

  Captain Fantastic (2016) Bluray Remux 1080p AVC DTS-HD MA 5.1
#1
Captain Fantastic (2016) Bluray Remux 1080p AVC DTS-HD MA 5.1

[Image: tt3553976.jpg]

[Image: imdb.png]
https://www.imdb.com/title/tt3553976/

[Image: info.png]
Captain Fantastic 2016 EN.mkv
Format                      : Matroska
Format version              : Version 4 / Version 2
File size                   : 24.9 GiB
Duration                    : 1 h 59 min
Overall bit rate mode       : Variable
Overall bit rate            : 29.9 Mb/s
Movie name                  : Captain Fantastic
Encoded date                : UTC 2016-10-22 13:30:08
Writing application         : mkvmerge v9.5.0 ('Quiet Fire') 64bit
Writing library             : libebml v1.3.4 + libmatroska v1.4.5

Video
ID                          : 1
Format                      : AVC
Format/Info                 : Advanced Video Codec
Format profile              : [email protected]
Format settings, CABAC      : Yes
Format settings, ReFrames   : 2 frames
Codec ID                    : V_MPEG4/ISO/AVC
Duration                    : 1 h 59 min
Bit rate mode               : Variable
Bit rate                    : 26.6 Mb/s
Width                       : 1 920 pixels
Height                      : 1 080 pixels
Display aspect ratio        : 16:9
Frame rate mode             : Constant
Frame rate                  : 23.976 (24000/1001) FPS
Color space                 : YUV
Chroma subsampling          : 4:2:0
Bit depth                   : 8 bits
Scan type                   : Progressive
Bits/(Pixel*Frame)          : 0.535
Stream size                 : 22.2 GiB (89%)
Title                       : Captain Fantastic
Language                    : English
Default                     : Yes
Forced                      : No

Audio
ID                          : 2
Format                      : DTS
Format/Info                 : Digital Theater Systems
Format profile              : MA / Core
Mode                        : 16
Format settings, Endianness : Big
Codec ID                    : A_DTS
Duration                    : 1 h 59 min
Bit rate mode               : Variable / Constant
Bit rate                    : 3 250 kb/s / 1 509 kb/s
Channel(s)                  : 6 channels
Channel positions           : Front: L C R, Side: L R, LFE
Sampling rate               : 48.0 kHz
Frame rate                  : 93.750 FPS (512 spf)
Bit depth                   : 24 bits
Compression mode            : Lossless / Lossy
Stream size                 : 2.71 GiB (11%)
Title                       : English
Language                    : English
Default                     : Yes
Forced                      : No

Text #1
ID                          : 3
Format                      : PGS
Muxing mode                 : zlib
Codec ID                    : S_HDMV/PGS
Codec ID/Info               : Picture based subtitle format used on BDs/HD-DVDs
Duration                    : 1 h 51 min
Bit rate                    : 10.0 kb/s
Count of elements           : 2650
Stream size                 : 8.00 MiB (0%)
Title                       : English
Language                    : English
Default                     : No
Forced                      : No

Text #2
ID                          : 4
Format                      : PGS
Muxing mode                 : zlib
Codec ID                    : S_HDMV/PGS
Codec ID/Info               : Picture based subtitle format used on BDs/HD-DVDs
Duration                    : 1 h 46 min
Bit rate                    : 10.8 kb/s
Count of elements           : 1976
Stream size                 : 8.23 MiB (0%)
Title                       : Turkish
Language                    : Turkish
Default                     : Yes
Forced                      : No

[Image: vlcsnap-error461-jpg-caab7574ad17276f370...81f5ca.jpg]

[Image: vlcsnap-error743-jpg-dd979bac2cc04723326...f1e956.jpg]

[Image: tdown.png]

For Only Vip Members

Captain Fantastic (2016) Bluray Remux 1080p AVC DTS-HD MA 5.1 VIP
Reply


Possibly Related Threads…
Thread Author Replies Views Last Post
  Sky Captain and the World of Tomorrow (2004) Bluray Remux 1080p TR EN MPEG DD 5.1 admin 0 851 07-31-2019, 10:09 AM
Last Post: admin
  Captain Marvel (2019) Bluray Remux 1080p AVC DTS-HD MA 7.1 admin 0 726 07-31-2019, 08:19 AM
Last Post: admin
  Fantastic Beasts The Crimes of Grindelwald (2018) Bluray Remux 1080p TR EN AVC TrueHD admin 0 884 07-15-2019, 02:59 PM
Last Post: admin
  Captain Corellis Mandolin (2001) Bluray Remux 1080p AVC DTS-HD MA 5.1 admin 0 889 05-13-2019, 02:01 PM
Last Post: admin
  Captain Underpants The First Epic Movie (2017) Bluray Remux 1080p TR-EN AVC DTS-HD MA admin 0 1,044 05-11-2019, 05:02 PM
Last Post: admin

Forum Jump:


Users browsing this thread: 1 Guest(s)

Powered By MyBB
Theme By Audentio Design
Updated By iAndrew | 2018