Thread Rating:
  • 0 Vote(s) - 0 Average
  • 1
  • 2
  • 3
  • 4
  • 5

[-]
Tags
bluray avc 1080p mandolin captain hd ma corellis 1 remux 2001 dts 5

  Captain Corellis Mandolin (2001) Bluray Remux 1080p AVC DTS-HD MA 5.1
#1
Captain Corellis Mandolin (2001) Bluray Remux 1080p AVC DTS-HD MA 5.1

[Image: tt0238112.jpg]

[Image: imdb.png]
https://www.imdb.com/title/tt0238112/

[Image: info.png]
Captain Corelli's Mandolin 2001 EN.mkv
Format                      : Matroska
Format version              : Version 4 / Version 2
File size                   : 25.9 GiB
Duration                    : 2 h 9 min
Overall bit rate mode       : Variable
Overall bit rate            : 28.8 Mb/s
Movie name                  : Captain Corelli's Mandolin
Encoded date                : UTC 2017-12-26 19:12:38
Writing application         : mkvmerge v19.0.0 ('Brave Captain') 64-bit
Writing library             : libebml v1.3.5 + libmatroska v1.4.8

Video
ID                          : 1
Format                      : AVC
Format/Info                 : Advanced Video Codec
Format profile              : [email protected]
Format settings             : CABAC / 3 Ref Frames
Format settings, CABAC      : Yes
Format settings, ReFrames   : 3 frames
Codec ID                    : V_MPEG4/ISO/AVC
Duration                    : 2 h 9 min
Bit rate mode               : Variable
Bit rate                    : 25.0 Mb/s
Maximum bit rate            : 28.0 Mb/s
Width                       : 1 920 pixels
Height                      : 1 080 pixels
Display aspect ratio        : 16:9
Frame rate mode             : Constant
Frame rate                  : 23.976 (24000/1001) FPS
Color space                 : YUV
Chroma subsampling          : 4:2:0
Bit depth                   : 8 bits
Scan type                   : Progressive
Bits/(Pixel*Frame)          : 0.503
Stream size                 : 22.3 GiB (86%)
Title                       : Captain Corelli's Mandolin
Writing library             : x264 core 129 r2245+729M 1a52e03
Encoding settings           : cabac=1 / ref=4 / deblock=1:-1:-1 / analyse=0x3:0x133 / me=umh / subme=10 / psy=1 / fade_compensate=0.00 / psy_rd=1.00:0.15 / mixed_ref=1 / me_range=24 / chroma_me=1 / trellis=2 / 8x8dct=1 / cqm=0 / deadzone=21,11 / fast_pskip=1 / chroma_qp_offset=-3 / threads=48 / lookahead_threads=8 / sliced_threads=0 / slices=4 / nr=0 / decimate=1 / interlaced=0 / bluray_compat=1 / constrained_intra=0 / fgo=0 / bframes=3 / b_pyramid=1 / b_adapt=2 / b_bias=0 / direct=3 / weightb=1 / open_gop=1 / weightp=1 / keyint=21 / keyint_min=1 / scenecut=40 / intra_refresh=0 / rc_lookahead=25 / rc=abr / mbtree=1 / bitrate=25000 / ratetol=1.0 / qcomp=0.60 / qpmin=0 / qpmax=69 / qpstep=4 / vbv_maxrate=28000 / vbv_bufsize=30000 / nal_hrd=vbr / ip_ratio=1.40 / aq=1:1.00
Language                    : English
Default                     : Yes
Forced                      : No
Color range                 : Limited
Color primaries             : BT.709
Transfer characteristics    : BT.709
Matrix coefficients         : BT.709

Audio
ID                          : 2
Format                      : DTS
Format/Info                 : Digital Theater Systems
Format profile              : MA / Core
Codec ID                    : A_DTS
Duration                    : 2 h 9 min
Bit rate mode               : Variable / Constant
Bit rate                    : 4 040 kb/s / 1 509 kb/s
Channel(s)                  : 6 channels
Channel positions           : Front: L C R, Side: L R, LFE
Sampling rate               : 48.0 kHz
Frame rate                  : 93.750 FPS (512 SPF)
Bit depth                   : 24 bits
Compression mode            : Lossless / Lossy
Stream size                 : 3.64 GiB (14%)
Title                       : English
Language                    : English
Default                     : Yes
Forced                      : No

Text
ID                          : 3
Format                      : PGS
Muxing mode                 : zlib
Codec ID                    : S_HDMV/PGS
Codec ID/Info               : Picture based subtitle format used on BDs/HD-DVDs
Duration                    : 2 h 0 min
Bit rate                    : 21.7 kb/s
Count of elements           : 1974
Stream size                 : 18.7 MiB (0%)
Title                       : Turkish
Language                    : Turkish
Default                     : Yes
Forced                      : No

[Image: 40874178543_6af93462ae_b.jpg]

[Image: 40874179603_1403972606_b.jpg]

[Image: tdown.png]

For Only Vip Members

Captain Corellis Mandolin (2001) Bluray Remux 1080p AVC DTS-HD MA 5.1 VIP
Reply


Possibly Related Threads…
Thread Author Replies Views Last Post
  The Others 2001 1080p Remux AVC DTS-HD MA 5.1-playBD KAiJu 0 65 11-30-2020, 01:35 PM
Last Post: KAiJu
  Attila 2001 BluRay Remux 1080p AVC DTS-HD MA 5.1-HiFi KAiJu 0 88 10-20-2020, 07:28 AM
Last Post: KAiJu
  The Pledge 2001 1080p Blu-ray Remux AVC FLAC 2.0 - KRaLiMaRKo KAiJu 0 121 10-15-2020, 07:23 AM
Last Post: KAiJu
  Rush Hour 1-2-3 (1998-2001-2007) Bluray REMUX 1080p TR-EN DD 5.1 x264-TURG admin 0 787 02-05-2020, 11:18 AM
Last Post: admin
  Le Pacte des Loups (2001) Bluray Remux 1080p AVC DTS-HD MA 5.1 admin 0 895 08-21-2019, 07:28 PM
Last Post: admin

Forum Jump:


Users browsing this thread: 1 Guest(s)

Powered By MyBB
Theme By Audentio Design
Updated By iAndrew | 2018