Thread Rating:
  • 0 Vote(s) - 0 Average
  • 1
  • 2
  • 3
  • 4
  • 5

[-]
Tags
canavar gibi x264 webdl 1080p 2018 nogrp

  Canavar Gibi (2018) WEBDL 1080p x264-NoGRP
#1
Canavar Gibi (2018) WEBDL 1080p x264-NoGRP

[Image: canavargibi.jpg]

[Image: imdb.png]
https://www.imdb.com/title/tt8059654/

[Image: info.png]
Format : Matroska
Format version : Version 4
File size : 2.76 GiB
Duration : 1 h 44 min
Overall bit rate : 3 788 kb/s
Encoded date : UTC 2018-12-02 09:39:44
Writing application : mkvmerge v29.0.0 ('Like It Or Not') 64-bit
Writing library : libebml v1.3.6 + libmatroska v1.4.9

Video
ID : 1
Format : AVC
Format/Info : Advanced Video Codec
Format profile : [email protected]
Format settings : CABAC / 3 Ref Frames
Format settings, CABAC : Yes
Format settings, RefFrames : 3 frames
Codec ID : V_MPEG4/ISO/AVC
Duration : 1 h 44 min
Bit rate : 3 594 kb/s
Width : 1 920 pixels
Height : 1 080 pixels
Display aspect ratio : 16:9
Frame rate mode : Constant
Frame rate : 24.000 FPS
Color space : YUV
Chroma subsampling : 4:2:0
Bit depth : 8 bits
Scan type : Progressive
Bits/(Pixel*Frame) : 0.072
Stream size : 2.62 GiB (95%)
Language : Turkish
Default : Yes
Forced : No

Audio
ID : 2
Format : AC-3
Format/Info : Audio Coding 3
Commercial name : Dolby Digital
Codec ID : A_AC3
Duration : 1 h 44 min
Bit rate mode : Constant
Bit rate : 192 kb/s
Channel(s) : 2 channels
Channel layout : L R
Sampling rate : 48.0 kHz
Frame rate : 31.250 FPS (1536 SPF)
Bit depth : 16 bits
Compression mode : Lossy
Delay relative to video : -41 ms
Stream size : 143 MiB (5%)
Language : Turkish
Service kind : Complete Main
Default : Yes
Forced : Yes

Text
ID : 3
Format : UTF-8
Codec ID : S_TEXT/UTF8
Codec ID/Info : UTF-8 Plain Text
Duration : 1 h 43 min
Bit rate : 88 b/s
Count of elements : 1892
Stream size : 67.0 KiB (0%)
Language : Turkish
Default : No
Forced : No

[Image: tdown.png]

For Only Vip Members
Reply


Possibly Related Threads…
Thread Author Replies Views Last Post
  Kafalar Karisik (2018) WEBDL 1080p DD5.1 x264-BdC admin 0 315 11-26-2019, 11:29 AM
Last Post: admin
  Bana Bir Soygun Yaz 2 (2018) WEBDL 1080p AC3 x264-HUSE admin 0 534 09-09-2019, 09:36 AM
Last Post: admin
  Deniz Ve Gunes (2018) WEBDL 1080p AC3 2.0 x264-HdT admin 0 599 06-18-2019, 12:18 PM
Last Post: admin
  Deliha 1-2 (2014-2018) WEBDL 1080p H264-NoGRP admin 0 560 06-16-2019, 05:44 PM
Last Post: admin
  GORA (2004) WEBDL 810p x264-NoGRP admin 0 634 04-06-2019, 03:16 PM
Last Post: admin

Forum Jump:


Users browsing this thread: 1 Guest(s)

Powered By MyBB
Theme By Audentio Design
Updated By iAndrew | 2018