Thread Rating:
  • 0 Vote(s) - 0 Average
  • 1
  • 2
  • 3
  • 4
  • 5

[-]
Tags
bluray avc 1080p 2017 head bullet hd ma 1 remux dts 5

 
  Bullet Head (2017) Bluray Remux 1080p AVC DTS-HD MA 5.1
#1
Bullet Head (2017) Bluray Remux 1080p AVC DTS-HD MA 5.1

[Image: tt6204340.jpg]

[Image: imdb.png]
https://www.imdb.com/title/tt6204340/

[Image: info.png]
Bullet Head 2017 EN.mkv
Format                      : Matroska
Format version              : Version 4 / Version 2
File size                   : 22.1 GiB
Duration                    : 1 h 34 min
Overall bit rate mode       : Variable
Overall bit rate            : 33.6 Mb/s
Movie name                  : Bullet Head
Encoded date                : UTC 2018-02-10 18:12:58
Writing application         : mkvmerge v20.0.0 ('I Am The Sun') 64-bit
Writing library             : libebml v1.3.5 + libmatroska v1.4.8

Video
ID                          : 1
Format                      : AVC
Format/Info                 : Advanced Video Codec
Format profile              : [email protected]
Format settings             : CABAC / 4 Ref Frames
Format settings, CABAC      : Yes
Format settings, ReFrames   : 4 frames
Codec ID                    : V_MPEG4/ISO/AVC
Duration                    : 1 h 34 min
Bit rate mode               : Variable
Bit rate                    : 29.7 Mb/s
Maximum bit rate            : 35.0 Mb/s
Width                       : 1 920 pixels
Height                      : 1 080 pixels
Display aspect ratio        : 16:9
Frame rate mode             : Constant
Frame rate                  : 23.976 (24000/1001) FPS
Color space                 : YUV
Chroma subsampling          : 4:2:0
Bit depth                   : 8 bits
Scan type                   : Progressive
Bits/(Pixel*Frame)          : 0.598
Stream size                 : 19.6 GiB (88%)
Title                       : Bullet Head
Language                    : English
Default                     : Yes
Forced                      : No

Audio
ID                          : 2
Format                      : DTS
Format/Info                 : Digital Theater Systems
Format profile              : MA / Core
Codec ID                    : A_DTS
Duration                    : 1 h 34 min
Bit rate mode               : Variable / Constant
Bit rate                    : 3 840 kb/s / 1 509 kb/s
Channel(s)                  : 6 channels
Channel positions           : Front: L C R, Side: L R, LFE
Sampling rate               : 48.0 kHz
Frame rate                  : 93.750 FPS (512 SPF)
Bit depth                   : 24 bits
Compression mode            : Lossless / Lossy
Stream size                 : 2.55 GiB (12%)
Title                       : English
Language                    : English
Default                     : Yes
Forced                      : No

Text #1
ID                          : 3
Format                      : PGS
Muxing mode                 : zlib
Codec ID                    : S_HDMV/PGS
Codec ID/Info               : Picture based subtitle format used on BDs/HD-DVDs
Duration                    : 1 h 33 min
Bit rate                    : 26.1 kb/s
Count of elements           : 2168
Stream size                 : 17.5 MiB (0%)
Title                       : Englidh
Language                    : English
Default                     : No
Forced                      : No

Text #2
ID                          : 4
Format                      : PGS
Muxing mode                 : zlib
Codec ID                    : S_HDMV/PGS
Codec ID/Info               : Picture based subtitle format used on BDs/HD-DVDs
Duration                    : 1 h 24 min
Bit rate                    : 22.8 kb/s
Count of elements           : 1538
Stream size                 : 13.8 MiB (0%)
Title                       : Turkish
Language                    : Turkish
Default                     : Yes
Forced                      : No

[Image: LlxgLh.jpg]

[Image: 3ZelbI.jpg]

[Image: tdown.png]

For Only Vip Members

Bullet Head (2017) Bluray Remux 1080p AVC DTS-HD MA 5.1 VIP
Reply


Possibly Related Threads…
Thread Author Replies Views Last Post
  Catch the Bullet 2021 1080p Blu-ray Remux AVC DTS-HD MA 5.1-HDT KAiJu 0 73 09-16-2021, 11:58 AM
Last Post: KAiJu
  Bite the Bullet (1975) Bluray Remux 1080p TR-EN AVC DTS 5.1-HUSE admin 0 1,367 09-01-2019, 09:25 PM
Last Post: admin
  Bullet to the Head (2012) Bluray Remux 1080p AVC DTS 5.1 admin 0 1,184 08-15-2019, 07:46 AM
Last Post: admin
  Silver Bullet (1985) Bluray Remux 1080p AVC DTs-HD MA 2.0 admin 0 1,206 05-15-2019, 06:51 PM
Last Post: admin

Forum Jump:


Users browsing this thread: 1 Guest(s)

Powered By MyBB
RSS RSS Syndication
Updated By iAndrew | 2022