Thread Rating:
  • 0 Vote(s) - 0 Average
  • 1
  • 2
  • 3
  • 4
  • 5

[-]
Tags
bluray broken avc 1080p 1 trail remux 5 2006 truehd

  Broken Trail (2006) Bluray Remux 1080p AVC TrueHD 5.1
#1
Broken Trail (2006) Bluray Remux 1080p AVC TrueHD 5.1

[Image: tt0482857.jpg]

[Image: imdb.png]
https://www.imdb.com/title/tt0482857/

[Image: info.png]
Broken Trail 2006 EN.mkv
Format                      : Matroska
Format version              : Version 4 / Version 2
File size                   : 30.6 GiB
Duration                    : 3 h 4 min
Overall bit rate mode       : Variable
Overall bit rate            : 23.8 Mb/s
Movie name                  : Broken Trail
Encoded date                : UTC 2018-02-05 09:46:12
Writing application         : mkvmerge v20.0.0 ('I Am The Sun') 64-bit
Writing library             : libebml v1.3.5 + libmatroska v1.4.8

Video
ID                          : 1
Format                      : AVC
Format/Info                 : Advanced Video Codec
Format profile              : [email protected]
Format settings             : CABAC / 2 Ref Frames
Format settings, CABAC      : Yes
Format settings, ReFrames   : 2 frames
Codec ID                    : V_MPEG4/ISO/AVC
Duration                    : 3 h 4 min
Bit rate mode               : Variable
Bit rate                    : 22.1 Mb/s
Width                       : 1 920 pixels
Height                      : 1 080 pixels
Display aspect ratio        : 16:9
Frame rate mode             : Constant
Frame rate                  : 23.976 (24000/1001) FPS
Color space                 : YUV
Chroma subsampling          : 4:2:0
Bit depth                   : 8 bits
Scan type                   : Progressive
Bits/(Pixel*Frame)          : 0.445
Stream size                 : 28.5 GiB (93%)
Title                       : Broken Trail
Language                    : English
Default                     : Yes
Forced                      : No

Audio
ID                          : 2
Format                      : TrueHD
Codec ID                    : A_TRUEHD
Duration                    : 3 h 4 min
Bit rate mode               : Variable
Bit rate                    : 1 535 kb/s
Maximum bit rate            : 2 475 kb/s
Channel(s)                  : 6 channels
Channel positions           : Front: L C R, Side: L R, LFE
Sampling rate               : 48.0 kHz
Frame rate                  : 1 200.000 FPS (40 SPF)
Compression mode            : Lossless
Stream size                 : 1.97 GiB (6%)
Title                       : English
Language                    : English
Default                     : Yes
Forced                      : No

Text #1
ID                          : 3
Format                      : PGS
Muxing mode                 : zlib
Codec ID                    : S_HDMV/PGS
Codec ID/Info               : Picture based subtitle format used on BDs/HD-DVDs
Duration                    : 3 h 1 min
Bit rate                    : 26.6 kb/s
Count of elements           : 3492
Stream size                 : 34.6 MiB (0%)
Title                       : English
Language                    : English
Default                     : No
Forced                      : No

Text #2
ID                          : 4
Format                      : PGS
Muxing mode                 : zlib
Codec ID                    : S_HDMV/PGS
Codec ID/Info               : Picture based subtitle format used on BDs/HD-DVDs
Duration                    : 3 h 2 min
Bit rate                    : 24.8 kb/s
Count of elements           : 3418
Stream size                 : 32.4 MiB (0%)
Title                       : Turkish
Language                    : Turkish
Default                     : Yes
Forced                      : No

[Image: aaLWNc.jpg]

[Image: wgXdKY.jpg]

[Image: tdown.png]

For Only Vip Members

Broken Trail (2006) Bluray Remux 1080p AVC TrueHD 5.1 VIP
Reply


Possibly Related Threads…
Thread Author Replies Views Last Post
  Firewall (2006) Bluray Remux 1080p VC-1 DD 5.1 admin 0 342 08-30-2019, 11:25 AM
Last Post: admin
  Tekkon Kinkurito (2006) Bluray REmux 1080p JP EN AVC DD 5.1 admin 0 345 08-24-2019, 11:17 AM
Last Post: admin
  When a Stranger Calls (2006) Bluray Remux 1080p AVC DD 5.1 admin 0 375 08-23-2019, 04:18 PM
Last Post: admin
  See No Evil 1-2 (2006-2014) Bluray Remux 1080p AVC DTS-HD MA 7.1 admin 0 408 08-23-2019, 02:18 PM
Last Post: admin
  Payback Straight Up Directors Cut (2006) Bluray Remux 1080p MPEG DD 5.1 admin 0 426 08-23-2019, 01:59 PM
Last Post: admin

Forum Jump:


Users browsing this thread: 2 Guest(s)

Powered By MyBB
Theme By Audentio Design
Updated By iAndrew | 2018