Thread Rating:
  • 0 Vote(s) - 0 Average
  • 1
  • 2
  • 3
  • 4
  • 5

[-]
Tags
bluray blip avc 1080p en bolts hd ma 1 remux 2010 dts 5 tr

 
  Bolts Blip (2010) Bluray Remux 1080p TR-EN AVC DTS-HD MA 5.1
#1
Bolts Blip (2010) Bluray Remux 1080p TR-EN AVC DTS-HD MA 5.1

[Image: tt3341536.jpg]

[Image: imdb.png]
https://www.imdb.com/title/tt3341536/

[Image: info.png]
Bolts & Blip 2010 TR EN.mkv
Format                      : Matroska
Format version              : Version 4 / Version 2
File size                   : 14.0 GiB
Duration                    : 1 h 16 min
Overall bit rate mode       : Variable
Overall bit rate            : 26.1 Mb/s
Movie name                  : Bolts & Blip
Encoded date                : UTC 2017-10-20 17:23:46
Writing application         : mkvmerge v17.0.0 ('Be Ur Friend') 64-bit
Writing library             : libebml v1.3.5 + libmatroska v1.4.8

Video
ID                          : 1
Format                      : AVC
Format/Info                 : Advanced Video Codec
Format profile              : [email protected]
Format settings, CABAC      : Yes
Format settings, ReFrames   : 4 frames
Format settings, GOP        : M=3, N=24
Codec ID                    : V_MPEG4/ISO/AVC
Duration                    : 1 h 16 min
Bit rate mode               : Variable
Bit rate                    : 21.3 Mb/s
Maximum bit rate            : 28.0 Mb/s
Width                       : 1 920 pixels
Height                      : 1 080 pixels
Display aspect ratio        : 16:9
Frame rate mode             : Constant
Frame rate                  : 23.976 (24000/1001) FPS
Standard                    : NTSC
Color space                 : YUV
Chroma subsampling          : 4:2:0
Bit depth                   : 8 bits
Scan type                   : Progressive
Bits/(Pixel*Frame)          : 0.428
Stream size                 : 11.4 GiB (81%)
Title                       : Bolts & Blip
Language                    : English
Default                     : Yes
Forced                      : No
Color range                 : Limited
Color primaries             : BT.709
Transfer characteristics    : BT.709
Matrix coefficients         : BT.709

Audio #1
ID                          : 2
Format                      : DTS
Format/Info                 : Digital Theater Systems
Format profile              : MA / Core
Mode                        : 16
Format settings, Endianness : Big
Codec ID                    : A_DTS
Duration                    : 1 h 16 min
Bit rate mode               : Variable / Constant
Bit rate                    : 2 402 kb/s / 1 509 kb/s
Channel(s)                  : 6 channels
Channel positions           : Front: L C R, Side: L R, LFE
Sampling rate               : 48.0 kHz
Frame rate                  : 93.750 FPS (512 spf)
Bit depth                   : 16 bits
Compression mode            : Lossless / Lossy
Stream size                 : 1.29 GiB (9%)
Title                       : Turkish
Language                    : Turkish
Default                     : No
Forced                      : No

Audio #2
ID                          : 3
Format                      : DTS
Format/Info                 : Digital Theater Systems
Format profile              : MA / Core
Mode                        : 16
Format settings, Endianness : Big
Codec ID                    : A_DTS
Duration                    : 1 h 16 min
Bit rate mode               : Variable / Constant
Bit rate                    : 2 434 kb/s / 1 509 kb/s
Channel(s)                  : 6 channels
Channel positions           : Front: L C R, Side: L R, LFE
Sampling rate               : 48.0 kHz
Frame rate                  : 93.750 FPS (512 spf)
Bit depth                   : 16 bits
Compression mode            : Lossless / Lossy
Stream size                 : 1.31 GiB (9%)
Title                       : English
Language                    : English
Default                     : Yes
Forced                      : No

Text #1
ID                          : 4
Format                      : PGS
Muxing mode                 : zlib
Codec ID                    : S_HDMV/PGS
Codec ID/Info               : Picture based subtitle format used on BDs/HD-DVDs
Duration                    : 1 h 14 min
Bit rate                    : 55.2 kb/s
Count of elements           : 1850
Stream size                 : 29.5 MiB (0%)
Title                       : Turkish
Language                    : Turkish
Default                     : Yes
Forced                      : No

Text #2
ID                          : 5
Format                      : PGS
Muxing mode                 : zlib
Codec ID                    : S_HDMV/PGS
Codec ID/Info               : Picture based subtitle format used on BDs/HD-DVDs
Duration                    : 1 h 14 min
Bit rate                    : 52.8 kb/s
Count of elements           : 1851
Stream size                 : 28.2 MiB (0%)
Title                       : English
Language                    : English
Default                     : No
Forced                      : No

[Image: 47788408122_fb2dfe5ca3_b.jpg]

[Image: 47050958744_afef20dffa_b.jpg]

[Image: tdown.png]

For Only Vip Members

Bolts Blip (2010) Bluray Remux 1080p TR-EN AVC DTS-HD MA 5.1 VIP
Reply


Possibly Related Threads…
Thread Author Replies Views Last Post
  Greenberg 2010 1080p Remux VC-1 DTS-HD MA 5.1-playBD KAiJu 0 8 05-17-2022, 01:13 PM
Last Post: KAiJu
  Neadekvatnye lyudi 2010 1080p Blu-ray Remux AVC DTS-HD MA 5.1 - KRaLiMaRKo KAiJu 0 68 03-08-2022, 02:58 PM
Last Post: KAiJu
  Everything Must Go 2010 1080p BluRay REMUX AVC FLAC 5 1-TRiToN KAiJu 0 78 02-21-2022, 02:19 PM
Last Post: KAiJu
  Hors la loi 2010 1080p Remux AVC DTS-HD MA 5.1-playBD KAiJu 0 64 02-08-2022, 01:21 PM
Last Post: KAiJu
  Die Prinzessin von Montpensier 2010 1080p Blu-ray Remux AVC DTS-HD MA 5.1-HDT KAiJu 0 98 12-14-2021, 06:40 AM
Last Post: KAiJu

Forum Jump:


Users browsing this thread: 1 Guest(s)

Powered By MyBB
RSS RSS Syndication
Updated By iAndrew | 2022