Thread Rating:
  • 0 Vote(s) - 0 Average
  • 1
  • 2
  • 3
  • 4
  • 5

[-]
Tags
1984 bluray blury avc 1080p body hd ma 1 remux dts 5 double

  Body Double (1984) Bluray Remux 1080p AVC DTS-HD MA 5.1
#1
Body Double (1984) Blury Remux 1080p AVC DTS-HD MA 5.1

[Image: tt0086984.jpg]

[Image: imdb.png]
https://www.imdb.com/title/tt0086984/

[Image: info.png]
Body Double 1984 EN.mkv
Format                      : Matroska
Format version              : Version 4 / Version 2
File size                   : 31.0 GiB
Duration                    : 1 h 54 min
Overall bit rate mode       : Variable
Overall bit rate            : 38.8 Mb/s
Movie name                  : Body Double
Encoded date                : UTC 2017-08-21 14:37:20
Writing application         : mkvmerge v15.0.0 ('Duel with the Devil') 64-bit
Writing library             : libebml v1.3.5 + libmatroska v1.4.5

Video
ID                          : 1
Format                      : AVC
Format/Info                 : Advanced Video Codec
Format profile              : [email protected]
Format settings, CABAC      : Yes
Format settings, ReFrames   : 3 frames
Codec ID                    : V_MPEG4/ISO/AVC
Duration                    : 1 h 54 min
Bit rate mode               : Variable
Bit rate                    : 35.0 Mb/s
Maximum bit rate            : 38.0 Mb/s
Width                       : 1 920 pixels
Height                      : 1 080 pixels
Display aspect ratio        : 16:9
Frame rate mode             : Constant
Frame rate                  : 23.976 (24000/1001) FPS
Color space                 : YUV
Chroma subsampling          : 4:2:0
Bit depth                   : 8 bits
Scan type                   : Progressive
Bits/(Pixel*Frame)          : 0.704
Stream size                 : 27.7 GiB (90%)
Title                       : Body Double
Writing library             : x264 core 142 r2479kMod dd79a61
Encoding settings           : cabac=1 / ref=4 / deblock=0:-1:-1 / analyse=0x3:0x133 / me=umh / subme=10 / psy=1 / fade_compensate=0.00 / psy_rd=1.00:0.15 / mixed_ref=1 / me_range=24 / chroma_me=1 / trellis=2 / 8x8dct=1 / cqm=1 / deadzone=21,11 / fast_pskip=0 / chroma_qp_offset=-3 / threads=12 / lookahead_threads=1 / sliced_threads=0 / slices=4 / nr=0 / decimate=0 / interlaced=0 / bluray_compat=1 / constrained_intra=0 / fgo=15 / bframes=3 / b_pyramid=1 / b_adapt=2 / b_bias=0 / direct=3 / weightb=1 / open_gop=1 / weightp=1 / keyint=24 / keyint_min=1 / scenecut=40 / intra_refresh=0 / rc_lookahead=24 / rc=abr / mbtree=0 / bitrate=35000 / ratetol=1.0 / qcomp=0.10 / qpmin=4 / qpmax=69 / qpstep=4 / vbv_maxrate=38000 / vbv_bufsize=28500 / nal_hrd=vbr / filler=0 / ip_ratio=1.40 / pb_ratio=1.13 / aq=1:0.50 / zones=57696,57824,b=2.0
Language                    : English
Default                     : Yes
Forced                      : No
Color range                 : Limited
Color primaries             : BT.709
Transfer characteristics    : BT.709
Matrix coefficients         : BT.709

Audio
ID                          : 2
Format                      : DTS
Format/Info                 : Digital Theater Systems
Format profile              : MA / Core
Mode                        : 16
Format settings, Endianness : Big
Codec ID                    : A_DTS
Duration                    : 1 h 54 min
Bit rate mode               : Variable / Constant
Bit rate                    : 4 030 kb/s / 1 509 kb/s
Channel(s)                  : 6 channels
Channel positions           : Front: L C R, Side: L R, LFE
Sampling rate               : 48.0 kHz
Frame rate                  : 93.750 FPS (512 spf)
Bit depth                   : 24 bits
Compression mode            : Lossless / Lossy
Stream size                 : 3.21 GiB (10%)
Title                       : English
Language                    : English
Default                     : Yes
Forced                      : No

Text #1
ID                          : 3
Format                      : PGS
Muxing mode                 : zlib
Codec ID                    : S_HDMV/PGS
Codec ID/Info               : Picture based subtitle format used on BDs/HD-DVDs
Duration                    : 1 h 51 min
Bit rate                    : 27.0 kb/s
Count of elements           : 2336
Stream size                 : 21.6 MiB (0%)
Title                       : English
Language                    : English
Default                     : No
Forced                      : No

Text #2
ID                          : 4
Format                      : PGS
Muxing mode                 : zlib
Codec ID                    : S_HDMV/PGS
Codec ID/Info               : Picture based subtitle format used on BDs/HD-DVDs
Duration                    : 1 h 50 min
Bit rate                    : 17.7 kb/s
Count of elements           : 1846
Stream size                 : 14.1 MiB (0%)
Title                       : Turkish
Language                    : Turkish
Default                     : Yes
Forced                      : No

[Image: 47788376912_32ef709f4e_b.jpg]

[Image: 46924200945_7342074f5b_b.jpg]

[Image: tdown.png]

For Only Vip Members

Body Double (1984) Bluray Remux 1080p AVC DTS-HD MA 5.1 VIP
Reply


Possibly Related Threads…
Thread Author Replies Views Last Post
  Paris Texas (1984) Bluray REMUX 1080p TR-EN AVC DTS-HD MA 5.1-BdC admin 0 816 01-08-2020, 03:52 PM
Last Post: admin
  Jennifers Body (2009) Bluray Remux 1080p AVC DTS-HD MA 5.1 admin 0 633 08-21-2019, 06:45 PM
Last Post: admin
  Gremlins 1-2 (1984-1990) Bluray Remux 1080p VC-1 TrueHD 5.1 admin 0 752 08-21-2019, 01:27 PM
Last Post: admin
  Amadeus (1984) Bluray Remux 1080p VC-1 TrueHD 5.1 admin 0 802 07-09-2019, 11:56 AM
Last Post: admin
  Conan the Destroyer (1984) Bluray Remux 1080p AVC DTS-HD MA 5.1 admin 0 787 07-08-2019, 10:12 AM
Last Post: admin

Forum Jump:


Users browsing this thread: 1 Guest(s)

Powered By MyBB
Theme By Audentio Design
Updated By iAndrew | 2018