Thread Rating:
  • 0 Vote(s) - 0 Average
  • 1
  • 2
  • 3
  • 4
  • 5

[-]
Tags
bluray 2002 work blood avc 1080p hd ma 1 remux dts 5

  Blood Work (2002) Bluray Remux 1080p AVC DTS-HD MA 5.1
#1
Blood Work (2002) Bluray Remux 1080p AVC DTS-HD MA 5.1

[Image: tt0309377.jpg]

[Image: imdb.png]
https://www.imdb.com/title/tt0309377/

[Image: info.png]
Blood Work 2002 EN.mkv
Format                      : Matroska
Format version              : Version 4 / Version 2
File size                   : 25.8 GiB
Duration                    : 1 h 50 min
Overall bit rate mode       : Variable
Overall bit rate            : 33.4 Mb/s
Movie name                  : Blood Work
Encoded date                : UTC 2016-05-28 12:26:26
Writing application         : mkvmerge v8.3.0 ('Over the Horizon') 64bit
Writing library             : libebml v1.3.1 + libmatroska v1.4.2

Video
ID                          : 1
Format                      : AVC
Format/Info                 : Advanced Video Codec
Format profile              : [email protected]
Format settings, CABAC      : Yes
Format settings, ReFrames   : 2 frames
Format settings, GOP        : M=1, N=10
Codec ID                    : V_MPEG4/ISO/AVC
Duration                    : 1 h 50 min
Bit rate mode               : Variable
Bit rate                    : 29.8 Mb/s
Width                       : 1 920 pixels
Height                      : 1 080 pixels
Display aspect ratio        : 16:9
Frame rate mode             : Constant
Frame rate                  : 23.976 (24000/1001) FPS
Color space                 : YUV
Chroma subsampling          : 4:2:0
Bit depth                   : 8 bits
Scan type                   : Progressive
Bits/(Pixel*Frame)          : 0.599
Stream size                 : 23.0 GiB (89%)
Title                       : Blood Work
Language                    : English
Default                     : Yes
Forced                      : No

Audio
ID                          : 2
Format                      : DTS
Format/Info                 : Digital Theater Systems
Format profile              : MA / Core
Mode                        : 16
Format settings, Endianness : Big
Codec ID                    : A_DTS
Duration                    : 1 h 50 min
Bit rate mode               : Variable / Constant
Bit rate                    : 3 572 kb/s / 1 509 kb/s
Channel(s)                  : 6 channels
Channel positions           : Front: L C R, Side: L R, LFE
Sampling rate               : 48.0 kHz
Frame rate                  : 93.750 FPS (512 spf)
Bit depth                   : 24 bits
Compression mode            : Lossless / Lossy
Stream size                 : 2.76 GiB (11%)
Title                       : English
Language                    : English
Default                     : Yes
Forced                      : No

Text #1
ID                          : 3
Format                      : PGS
Muxing mode                 : zlib
Codec ID                    : S_HDMV/PGS
Codec ID/Info               : Picture based subtitle format used on BDs/HD-DVDs
Duration                    : 1 h 50 min
Bit rate                    : 13.8 kb/s
Count of elements           : 2544
Stream size                 : 10.9 MiB (0%)
Title                       : English
Language                    : English
Default                     : No
Forced                      : No

Text #2
ID                          : 4
Format                      : PGS
Muxing mode                 : zlib
Codec ID                    : S_HDMV/PGS
Codec ID/Info               : Picture based subtitle format used on BDs/HD-DVDs
Duration                    : 1 h 44 min
Bit rate                    : 14.3 kb/s
Count of elements           : 2462
Stream size                 : 10.7 MiB (0%)
Title                       : Turkish
Language                    : Turkish
Default                     : Yes
Forced                      : No

[Image: vlcsnap-error512-jpg-893c9cbf04687f1f8a4...2028f1.jpg]

[Image: vlcsnap-error703-jpg-95857b4e782c749a9ab...f0596e.jpg]

[Image: tdown.png]

For Only Vip Members

Blood Work (2002) Bluray Remux 1080p AVC DTS-HD MA 5.1 VIP
Reply


Possibly Related Threads…
Thread Author Replies Views Last Post
  Blood and Bone 2009 1080p Remux AVC DTS-HD MA 5.1-playBD KAiJu 0 117 10-26-2020, 04:03 PM
Last Post: KAiJu
  Ali G Indahouse (2002) Bluray REMUX 1080p EN-TR AVC DTS-HD MA 5.1-FGT AbrA 0 484 07-05-2020, 04:49 PM
Last Post: AbrA
  The Ring 1-2-3 (2002-2017) Bluray Remux 1080p AVC DTS 5.1 admin 1 961 03-24-2020, 04:03 AM
Last Post: Batiburrillo
  Throne of Blood (1957) Bluray Remux 1080p AVC DD 1.0 admin 0 733 09-08-2019, 02:49 PM
Last Post: admin
  Undercover Brother (2002) Bluray Remux 1080p AVC DTS-HD MA 5.1 admin 0 877 08-24-2019, 12:44 PM
Last Post: admin

Forum Jump:


Users browsing this thread: 1 Guest(s)

Powered By MyBB
Theme By Audentio Design
Updated By iAndrew | 2018