Thread Rating:
  • 0 Vote(s) - 0 Average
  • 1
  • 2
  • 3
  • 4
  • 5

[-]
Tags
dd black bluray 2002 avc 1080p 1 remux 5 angel

 
  Black Angel (2002) Bluray Remux 1080p AVC DD 5.1
#1
Black Angel (2002) Bluray Remux 1080p AVC DD 5.1

[Image: tt0267261.jpg]

[Image: imdb.png]
https://www.imdb.com/title/tt0267261/

[Image: info.png]
Senso 45 aka Black Angel 2002 IT.mkv
Format                      : Matroska
Format version              : Version 4 / Version 2
File size                   : 18.1 GiB
Duration                    : 2 h 7 min
Overall bit rate mode       : Variable
Overall bit rate            : 20.4 Mb/s
Movie name                  : Senso '45 aka Black Angel
Encoded date                : UTC 2017-10-01 06:38:18
Writing application         : mkvmerge v16.0.0 ('Protest') 64-bit
Writing library             : libebml v1.3.5 + libmatroska v1.4.8

Video
ID                          : 1
Format                      : AVC
Format/Info                 : Advanced Video Codec
Format profile              : [email protected]
Format settings, CABAC      : Yes
Format settings, ReFrames   : 3 frames
Codec ID                    : V_MPEG4/ISO/AVC
Duration                    : 2 h 7 min
Bit rate mode               : Variable
Bit rate                    : 19.9 Mb/s
Maximum bit rate            : 39.0 Mb/s
Width                       : 1 920 pixels
Height                      : 1 080 pixels
Display aspect ratio        : 16:9
Frame rate mode             : Constant
Frame rate                  : 23.976 (24000/1001) FPS
Color space                 : YUV
Chroma subsampling          : 4:2:0
Bit depth                   : 8 bits
Scan type                   : Progressive
Bits/(Pixel*Frame)          : 0.401
Stream size                 : 17.7 GiB (98%)
Title                       : Senso '45 aka Black Angel
Language                    : Italian
Default                     : Yes
Forced                      : No
Color range                 : Limited
Color primaries             : BT.709
Transfer characteristics    : BT.709
Matrix coefficients         : BT.709

Audio
ID                          : 2
Format                      : AC-3
Format/Info                 : Audio Coding 3
Format settings, Endianness : Big
Codec ID                    : A_AC3
Duration                    : 2 h 7 min
Bit rate mode               : Constant
Bit rate                    : 448 kb/s
Channel(s)                  : 6 channels
Channel positions           : Front: L C R, Side: L R, LFE
Sampling rate               : 48.0 kHz
Frame rate                  : 31.250 FPS (1536 spf)
Bit depth                   : 16 bits
Compression mode            : Lossy
Stream size                 : 408 MiB (2%)
Title                       : Italian
Language                    : Italian
Service kind                : Complete Main
Default                     : Yes
Forced                      : No

Text
ID                          : 3
Format                      : PGS
Muxing mode                 : zlib
Codec ID                    : S_HDMV/PGS
Codec ID/Info               : Picture based subtitle format used on BDs/HD-DVDs
Duration                    : 2 h 3 min
Bit rate                    : 17.1 kb/s
Count of elements           : 1900
Stream size                 : 15.1 MiB (0%)
Title                       : Turkish
Language                    : Turkish
Default                     : Yes
Forced                      : No

[Image: vlcsnap-error196-jpg-facfba76df42868945e...23a36f.jpg]

[Image: vlcsnap-error617-jpg-18705582ac385ba02e6...0fd3c0.jpg]

[Image: tdown.png]

For Only Vip Members

Black Angel (2002) Bluray Remux 1080p AVC DD 5.1 VIP
Reply


Possibly Related Threads…
Thread Author Replies Views Last Post
  Ying xiong 2002 1080p Remux AVC DTS-HD MA 5.1-playBD KAiJu 0 14 11-18-2021, 06:54 AM
Last Post: KAiJu
  Laissez Passer 2002 1080p Blu-ray Remux AVC DTS-HD MA 5.1-HDT KAiJu 0 18 11-15-2021, 09:49 AM
Last Post: KAiJu
  A Walk to Remember 2002 1080i Blu-ray Remux AVC DTS-HD MA 5.1 - KRaLiMaRKo KAiJu 0 15 11-14-2021, 10:06 PM
Last Post: KAiJu
  Red Dragon (2002) Bluray REMUX 1080p AVC DTS-HD MA 5.1-HUS AbrA 0 16 11-07-2021, 11:29 AM
Last Post: AbrA
  Old Men in New Cars (2002) BluRay REMUX 1080p AVC DTS-HD MA 5.1-FraMeSToR AbrA 0 28 10-23-2021, 07:15 PM
Last Post: AbrA

Forum Jump:


Users browsing this thread: 1 Guest(s)

Powered By MyBB
RSS RSS Syndication
Updated By iAndrew | 2021