Thread Rating:
  • 0 Vote(s) - 0 Average
  • 1
  • 2
  • 3
  • 4
  • 5

[-]
Tags
bluray before avc 1080p sunset en hd ma 2004 1 remux dts 5 tr

  Before Sunset (2004) Bluray Remux 1080p TR-EN AVC DTS-HD MA 5.1
#1
Before Sunset (2004) Bluray Remux 1080p TR-EN AVC DTS-HD MA 5.1

[Image: tt0381681.jpg]

[Image: imdb.png]
https://www.imdb.com/title/tt0381681/

[Image: info.png]
Before Sunset 2004 TR EN.mkv
Format                      : Matroska
Format version              : Version 4 / Version 2
File size                   : 20.7 GiB
Duration                    : 1 h 20 min
Overall bit rate mode       : Variable
Overall bit rate            : 36.9 Mb/s
Movie name                  : Before Sunset
Encoded date                : UTC 2017-10-03 14:17:16
Writing application         : mkvmerge v16.0.0 ('Protest') 64-bit
Writing library             : libebml v1.3.5 + libmatroska v1.4.8

Video
ID                          : 1
Format                      : AVC
Format/Info                 : Advanced Video Codec
Format profile              : [email protected]
Format settings             : CABAC / 4 Ref Frames
Format settings, CABAC      : Yes
Format settings, ReFrames   : 4 frames
Codec ID                    : V_MPEG4/ISO/AVC
Duration                    : 1 h 20 min
Bit rate mode               : Variable
Bit rate                    : 33.4 Mb/s
Maximum bit rate            : 36.0 Mb/s
Width                       : 1 920 pixels
Height                      : 1 080 pixels
Display aspect ratio        : 16:9
Frame rate mode             : Constant
Frame rate                  : 23.976 (24000/1001) FPS
Color space                 : YUV
Chroma subsampling          : 4:2:0
Bit depth                   : 8 bits
Scan type                   : Progressive
Bits/(Pixel*Frame)          : 0.673
Stream size                 : 18.8 GiB (91%)
Title                       : Before Sunset
Language                    : English
Default                     : Yes
Forced                      : No

Audio #1
ID                          : 2
Format                      : DTS
Format/Info                 : Digital Theater Systems
Format profile              : MA / Core
Codec ID                    : A_DTS
Duration                    : 1 h 20 min
Bit rate mode               : Variable / Constant
Bit rate                    : 3 179 kb/s / 1 509 kb/s
Channel(s)                  : 6 channels
Channel positions           : Front: L C R, Side: L R, LFE
Sampling rate               : 48.0 kHz
Frame rate                  : 93.750 FPS (512 SPF)
Bit depth                   : 24 bits
Compression mode            : Lossless / Lossy
Stream size                 : 1.78 GiB (9%)
Title                       : English
Language                    : English
Default                     : Yes
Forced                      : No

Audio #2
ID                          : 3
Format                      : AC-3
Format/Info                 : Audio Coding 3
Codec ID                    : A_AC3
Duration                    : 1 h 20 min
Bit rate mode               : Constant
Bit rate                    : 192 kb/s
Channel(s)                  : 2 channels
Channel positions           : Front: L R
Sampling rate               : 48.0 kHz
Frame rate                  : 31.250 FPS (1536 SPF)
Bit depth                   : 16 bits
Compression mode            : Lossy
Stream size                 : 110 MiB (1%)
Title                       : Turkish
Language                    : Turkish
Service kind                : Complete Main
Default                     : No
Forced                      : No

Text #1
ID                          : 4
Format                      : PGS
Muxing mode                 : zlib
Codec ID                    : S_HDMV/PGS
Codec ID/Info               : Picture based subtitle format used on BDs/HD-DVDs
Duration                    : 1 h 18 min
Bit rate                    : 67.9 kb/s
Count of elements           : 3060
Stream size                 : 38.1 MiB (0%)
Title                       : English
Language                    : English
Default                     : No
Forced                      : No

Text #2
ID                          : 5
Format                      : PGS
Muxing mode                 : zlib
Codec ID                    : S_HDMV/PGS
Codec ID/Info               : Picture based subtitle format used on BDs/HD-DVDs
Duration                    : 1 h 18 min
Bit rate                    : 56.7 kb/s
Count of elements           : 2924
Stream size                 : 31.8 MiB (0%)
Title                       : Turkish
Language                    : Turkish
Default                     : Yes
Forced                      : No

[Image: ZabO7A.jpg]

[Image: D48Y66.jpg]

[Image: tdown.png]

For Only Vip Members

Before Sunset (2004) Bluray Remux 1080p TR-EN AVC DTS-HD MA 5.1 VIP
Reply


Possibly Related Threads…
Thread Author Replies Views Last Post
  The Terminal (2004) Bluray Remux 1080p AVC DTS 5.1 admin 0 367 08-31-2019, 07:09 AM
Last Post: admin
  The Chronicles of Riddick (2004) Bluray Remux 1080p VC-1 DTS-HD MA 5.1 admin 0 418 08-23-2019, 07:48 PM
Last Post: admin
  Collateral (2004) Bluray Remux 1080p AVC DTS-HD MA 5.1 admin 0 390 08-19-2019, 10:55 AM
Last Post: admin
  Cellular (2004) Bluray Remux 1080p AVC DTS-HD MA 5.1 admin 0 334 08-18-2019, 03:00 PM
Last Post: admin
  Sky Captain and the World of Tomorrow (2004) Bluray Remux 1080p TR EN MPEG DD 5.1 admin 0 413 07-31-2019, 10:09 AM
Last Post: admin

Forum Jump:


Users browsing this thread: 1 Guest(s)

Powered By MyBB
Theme By Audentio Design
Updated By iAndrew | 2018