Thread Rating:
  • 0 Vote(s) - 0 Average
  • 1
  • 2
  • 3
  • 4
  • 5

[-]
Tags
bluray before 1995 avc 1080p 2 remux dts sunrise

  Before Sunrise (1995) Bluray Remux 1080p AVC DTS 2.0
#1
Before Sunrise (1995) Bluray Remux 1080p AVC DTS 2.0

[Image: tt0112471.jpg]

[Image: imdb.png]
https://www.imdb.com/title/tt0112471/

[Image: info.png]
Before Sunrise 1995 EN.mkv
Format                      : Matroska
Format version              : Version 4 / Version 2
File size                   : 26.8 GiB
Duration                    : 1 h 40 min
Overall bit rate mode       : Variable
Overall bit rate            : 38.0 Mb/s
Movie name                  : Before Sunrise
Encoded date                : UTC 2018-02-14 17:02:09
Writing application         : mkvmerge v20.0.0 ('I Am The Sun') 64-bit
Writing library             : libebml v1.3.5 + libmatroska v1.4.8

Video
ID                          : 1
Format                      : AVC
Format/Info                 : Advanced Video Codec
Format profile              : [email protected]
Format settings             : CABAC / 4 Ref Frames
Format settings, CABAC      : Yes
Format settings, ReFrames   : 4 frames
Codec ID                    : V_MPEG4/ISO/AVC
Duration                    : 1 h 40 min
Bit rate mode               : Variable
Bit rate                    : 35.8 Mb/s
Maximum bit rate            : 40.0 Mb/s
Width                       : 1 920 pixels
Height                      : 1 080 pixels
Display aspect ratio        : 16:9
Frame rate mode             : Constant
Frame rate                  : 23.976 (24000/1001) FPS
Color space                 : YUV
Chroma subsampling          : 4:2:0
Bit depth                   : 8 bits
Scan type                   : Progressive
Bits/(Pixel*Frame)          : 0.721
Stream size                 : 25.2 GiB (94%)
Title                       : Before Sunrise
Language                    : English
Default                     : Yes
Forced                      : No

Audio
ID                          : 2
Format                      : DTS
Format/Info                 : Digital Theater Systems
Format profile              : MA / Core
Codec ID                    : A_DTS
Duration                    : 1 h 40 min
Bit rate mode               : Variable / Constant
Bit rate                    : 2 147 kb/s / 1 509 kb/s
Channel(s)                  : 2 channels
Channel positions           :  / Front: L R
Sampling rate               : 48.0 kHz
Frame rate                  : 93.750 FPS (512 SPF)
Bit depth                   : 24 bits
Compression mode            : Lossless / Lossy
Stream size                 : 1.51 GiB (6%)
Title                       : English
Language                    : English
Default                     : Yes
Forced                      : No

Text #1
ID                          : 3
Format                      : PGS
Muxing mode                 : zlib
Codec ID                    : S_HDMV/PGS
Codec ID/Info               : Picture based subtitle format used on BDs/HD-DVDs
Duration                    : 1 h 40 min
Bit rate                    : 46.2 kb/s
Count of elements           : 2894
Stream size                 : 33.3 MiB (0%)
Title                       : English
Language                    : English
Default                     : No
Forced                      : No

Text #2
ID                          : 4
Format                      : PGS
Muxing mode                 : zlib
Codec ID                    : S_HDMV/PGS
Codec ID/Info               : Picture based subtitle format used on BDs/HD-DVDs
Duration                    : 1 h 36 min
Bit rate                    : 43.4 kb/s
Count of elements           : 2580
Stream size                 : 30.1 MiB (0%)
Title                       : Turkish
Language                    : Turkish
Default                     : Yes
Forced                      : No

[Image: iB15Vj.jpg]

[Image: VYjJXm.jpg]

[Image: tdown.png]

For Only Vip Members

Before Sunrise (1995) Bluray Remux 1080p AVC DTS 2.0 VIP
Reply


Possibly Related Threads…
Thread Author Replies Views Last Post
  The Quick and the Dead (1995) Bluray REMUX 1080p TR-EN AVC TrueHD 5.1-TURG AbrA 0 127 04-11-2020, 07:05 PM
Last Post: AbrA
  Outbreak (1995) Bluray REMUX 1080p EN-TR VC-1 TrueHD 5.1-HuSe admin 0 189 03-18-2020, 01:31 PM
Last Post: admin
  Die Hard With a Vengeance (1995) Bluray Remux 1080p x264-HUSE admin 1 390 10-10-2019, 01:43 PM
Last Post: admin
  Outbreak (1995) Bluray Remux 1080p VC-1 TrueHD 5.1 admin 0 400 08-23-2019, 01:51 PM
Last Post: admin
  Waterworld (1995) Bluray Remux 1080p AVC DTS-HD MA 5.1 admin 0 381 08-10-2019, 03:38 PM
Last Post: admin

Forum Jump:


Users browsing this thread: 1 Guest(s)

Powered By MyBB
Theme By Audentio Design
Updated By iAndrew | 2018