Thread Rating:
  • 0 Vote(s) - 0 Average
  • 1
  • 2
  • 3
  • 4
  • 5

[-]
Tags
midnight bluray before avc 2013 1080p 1 remux dts 5

  Before Midnight (2013) Bluray Remux 1080p AVC DTS 5.1
#1
Before Midnight (2013) Bluray Remux 1080p AVC DTS 5.1

[Image: tt2209418.jpg]

[Image: imdb.png]
https://www.imdb.com/title/tt2209418/

[Image: info.png]
Before Midnight 2013 EN.mkv
Format                      : Matroska
Format version              : Version 4 / Version 2
File size                   : 23.8 GiB
Duration                    : 1 h 48 min
Overall bit rate mode       : Variable
Overall bit rate            : 31.2 Mb/s
Movie name                  : Before Midnight
Encoded date                : UTC 2018-02-15 19:24:08
Writing application         : mkvmerge v20.0.0 ('I Am The Sun') 64-bit
Writing library             : libebml v1.3.5 + libmatroska v1.4.8

Video
ID                          : 1
Format                      : AVC
Format/Info                 : Advanced Video Codec
Format profile              : [email protected]
Format settings             : CABAC / 2 Ref Frames
Format settings, CABAC      : Yes
Format settings, ReFrames   : 2 frames
Codec ID                    : V_MPEG4/ISO/AVC
Duration                    : 1 h 48 min
Bit rate mode               : Variable
Bit rate                    : 27.9 Mb/s
Width                       : 1 920 pixels
Height                      : 1 080 pixels
Display aspect ratio        : 16:9
Frame rate mode             : Constant
Frame rate                  : 23.976 (24000/1001) FPS
Color space                 : YUV
Chroma subsampling          : 4:2:0
Bit depth                   : 8 bits
Scan type                   : Progressive
Bits/(Pixel*Frame)          : 0.561
Stream size                 : 21.2 GiB (89%)
Title                       : Before Midnight
Language                    : English
Default                     : Yes
Forced                      : No

Audio
ID                          : 2
Format                      : DTS
Format/Info                 : Digital Theater Systems
Format profile              : MA / Core
Codec ID                    : A_DTS
Duration                    : 1 h 48 min
Bit rate mode               : Variable / Constant
Bit rate                    : 3 306 kb/s / 1 509 kb/s
Channel(s)                  : 6 channels
Channel positions           : Front: L C R, Side: L R, LFE
Sampling rate               : 48.0 kHz
Frame rate                  : 93.750 FPS (512 SPF)
Bit depth                   : 24 bits
Compression mode            : Lossless / Lossy
Stream size                 : 2.51 GiB (11%)
Title                       : English
Language                    : English
Default                     : Yes
Forced                      : No

Text #1
ID                          : 3
Format                      : PGS
Muxing mode                 : zlib
Codec ID                    : S_HDMV/PGS
Codec ID/Info               : Picture based subtitle format used on BDs/HD-DVDs
Duration                    : 1 h 43 min
Bit rate                    : 58.8 kb/s
Count of elements           : 3533
Stream size                 : 43.5 MiB (0%)
Title                       : English
Language                    : English
Default                     : No
Forced                      : No

Text #2
ID                          : 4
Format                      : PGS
Muxing mode                 : zlib
Codec ID                    : S_HDMV/PGS
Codec ID/Info               : Picture based subtitle format used on BDs/HD-DVDs
Duration                    : 1 h 43 min
Bit rate                    : 56.6 kb/s
Count of elements           : 3206
Stream size                 : 41.9 MiB (0%)
Title                       : Turkish
Language                    : Turkish
Default                     : Yes
Forced                      : No

[Image: 2UETOY.jpg]

[Image: Zoyx5O.jpg]

[Image: tdown.png]

For Only Vip Members

Before Midnight (2013) Bluray Remux 1080p AVC DTS 5.1 VIP
Reply


Possibly Related Threads…
Thread Author Replies Views Last Post
  10 to Midnight (1983) Bluray Remux 1080p AVC DTS-HD MA 2.0 admin 0 396 06-30-2019, 01:38 PM
Last Post: admin
  Midnight Cowboy (1969) Bluray Remux 1080p AVC DTS-HD MA 5.1 admin 0 485 05-14-2019, 02:14 PM
Last Post: admin
  Midnight in the Garden of Good and Evil (1997) Bluray Remux 1080p AVC DTS 5.1 admin 0 695 03-29-2019, 02:12 PM
Last Post: admin

Forum Jump:


Users browsing this thread: 1 Guest(s)

Powered By MyBB
Theme By Audentio Design
Updated By iAndrew | 2018