Thread Rating:
  • 0 Vote(s) - 0 Average
  • 1
  • 2
  • 3
  • 4
  • 5

[-]
Tags
bluray avc 1080p of 2017 7 the en battle hd ma 1 remux dts tr sexes

  Battle of the Sexes (2017) Bluray Remux 1080p TR-EN AVC DTS-HD MA 7.1
#1
Battle of the Sexes (2017) Bluray Remux 1080p TR-EN AVC DTS-HD MA 7.1

[Image: tt4622512.jpg]

[Image: imdb.png]
https://www.imdb.com/title/tt4622512/

[Image: info.png]
Battle of the Sexes 2017 TR EN.mkv
Format                      : Matroska
Format version              : Version 4 / Version 2
File size                   : 30.9 GiB
Duration                    : 2 h 1 min
Overall bit rate mode       : Variable
Overall bit rate            : 36.3 Mb/s
Movie name                  : Battle of the Sexes
Encoded date                : UTC 2017-12-26 20:48:14
Writing application         : mkvmerge v19.0.0 ('Brave Captain') 64-bit
Writing library             : libebml v1.3.5 + libmatroska v1.4.8

Video
ID                          : 1
Format                      : AVC
Format/Info                 : Advanced Video Codec
Format profile              : [email protected]
Format settings             : CABAC / 4 Ref Frames
Format settings, CABAC      : Yes
Format settings, ReFrames   : 4 frames
Codec ID                    : V_MPEG4/ISO/AVC
Duration                    : 2 h 1 min
Bit rate mode               : Variable
Bit rate                    : 31.3 Mb/s
Maximum bit rate            : 33.1 Mb/s
Width                       : 1 920 pixels
Height                      : 1 080 pixels
Display aspect ratio        : 16:9
Frame rate mode             : Constant
Frame rate                  : 23.976 (24000/1001) FPS
Color space                 : YUV
Chroma subsampling          : 4:2:0
Bit depth                   : 8 bits
Scan type                   : Progressive
Bits/(Pixel*Frame)          : 0.629
Stream size                 : 26.6 GiB (86%)
Title                       : Battle of the Sexes
Language                    : English
Default                     : Yes
Forced                      : No

Audio #1
ID                          : 2
Format                      : DTS
Format/Info                 : Digital Theater Systems
Format profile              : MA / Core
Codec ID                    : A_DTS
Duration                    : 2 h 1 min
Bit rate mode               : Variable / Constant
Bit rate                    : 4 589 kb/s / 1 509 kb/s
Channel(s)                  : 8 channels / 6 channels
Channel positions           : Front: L C R, Side: L R, Back: L R, LFE / Front: L C R, Side: L R, LFE
Sampling rate               : 48.0 kHz
Frame rate                  : 93.750 FPS (512 SPF)
Bit depth                   : 24 bits
Compression mode            : Lossless / Lossy
Stream size                 : 3.90 GiB (13%)
Title                       : English
Language                    : English
Default                     : Yes
Forced                      : No

Audio #2
ID                          : 3
Format                      : AC-3
Format/Info                 : Audio Coding 3
Codec ID                    : A_AC3
Duration                    : 2 h 1 min
Bit rate mode               : Constant
Bit rate                    : 448 kb/s
Channel(s)                  : 6 channels
Channel positions           : Front: L C R, Side: L R, LFE
Sampling rate               : 48.0 kHz
Frame rate                  : 31.250 FPS (1536 SPF)
Bit depth                   : 16 bits
Compression mode            : Lossy
Stream size                 : 390 MiB (1%)
Title                       : Turkish
Language                    : Turkish
Service kind                : Complete Main
Default                     : No
Forced                      : No

Text #1
ID                          : 4
Format                      : PGS
Muxing mode                 : zlib
Codec ID                    : S_HDMV/PGS
Codec ID/Info               : Picture based subtitle format used on BDs/HD-DVDs
Duration                    : 1 h 58 min
Bit rate                    : 52.3 kb/s
Count of elements           : 4550
Stream size                 : 44.4 MiB (0%)
Title                       : English
Language                    : English
Default                     : No
Forced                      : No

Text #2
ID                          : 5
Format                      : PGS
Muxing mode                 : zlib
Codec ID                    : S_HDMV/PGS
Codec ID/Info               : Picture based subtitle format used on BDs/HD-DVDs
Duration                    : 2 h 0 min
Bit rate                    : 41.5 kb/s
Count of elements           : 3270
Stream size                 : 35.8 MiB (0%)
Title                       : Turkish
Language                    : Turkish
Default                     : Yes
Forced                      : No

[Image: 47840824521_99404c447d_b.jpg]

[Image: 32896856187_32ae9f2123_b.jpg]

[Image: tdown.png]

For Only Vip Members

Battle of the Sexes (2017) Bluray Remux 1080p TR-EN AVC DTS-HD MA 7.1 VIP
Reply


Possibly Related Threads…
Thread Author Replies Views Last Post
  Alita Battle Angel (2019) Bluray Remux 1080p TR EN AVC DTS-HD MA 5.1 admin 0 1,449 08-21-2019, 02:46 PM
Last Post: admin
  Battle Royale 1-2 (2000-2003) Bluray Remux 1080p AVC DTS-HD MA 5.1 admin 0 1,042 08-12-2019, 11:26 AM
Last Post: admin
  Battle for Sevastopol (2015) Bluray Remux 1080p AVC DTS-HD MA 5.1 admin 0 828 07-17-2019, 07:09 PM
Last Post: admin

Forum Jump:


Users browsing this thread: 1 Guest(s)

Powered By MyBB
Theme By Audentio Design
Updated By iAndrew | 2018