Thread Rating:
  • 0 Vote(s) - 0 Average
  • 1
  • 2
  • 3
  • 4
  • 5

[-]
Tags
hood bluray under x264 1080p the prodji red 2010 dts batman

  Batman Under the Red Hood(2010 BluRay 1080p DTS x264-PRoDJi
#1
[Image: red.hood.jpg]
Batman Under the Red Hood(2010 BluRay 1080p DTS x264-PRoDJi

[Image: imdb.png]
https://www.imdb.com/title/tt1569923/

[Image: info.png]
Format : Matroska
Format version : Version 4
File size : 5.00 GiB
Duration : 1 h 15 min
Overall bit rate : 9 435 kb/s
Encoded date : UTC 2018-03-05 21:09:30
Writing application : mkvmerge v21.0.0 ('Tardigrades Will Inherit The Earth') 64-bit
Writing library : libebml v1.3.5 + libmatroska v1.4.8

Video
ID : 1
Format : AVC
Format/Info : Advanced Video Codec
Format profile : [email protected]
Format settings : CABAC / 3 Ref Frames
Format settings, CABAC : Yes
Format settings, RefFrames : 3 frames
Codec ID : V_MPEG4/ISO/AVC
Duration : 1 h 15 min
Bit rate : 7 924 kb/s
Width : 1 920 pixels
Height : 1 080 pixels
Display aspect ratio : 16:9
Frame rate mode : Constant
Frame rate : 23.976 (24000/1001) FPS
Color space : YUV
Chroma subsampling : 4:2:0
Bit depth : 8 bits
Scan type : Progressive
Bits/(Pixel*Frame) : 0.159
Stream size : 4.20 GiB (84%)
Title : PRoDJi
Writing library : x264 core 155 r2901 7d0ff22
Encoding settings : cabac=1 / ref=4 / deblock=1:1:1 / analyse=0x3:0x113 / me=umh / subme=7 / psy=1 / psy_rd=0.40:0.00 / mixed_ref=1 / me_range=24 / chroma_me=1 / trellis=2 / 8x8dct=1 / cqm=2 / deadzone=21,11 / fast_pskip=1 / chroma_qp_offset=-5 / threads=12 / lookahead_threads=3 / sliced_threads=0 / nr=0 / decimate=1 / interlaced=0 / bluray_compat=0 / constrained_intra=0 / bframes=5 / b_pyramid=1 / b_adapt=2 / b_bias=2 / direct=3 / weightb=1 / open_gop=0 / weightp=2 / keyint=230 / keyint_min=22 / scenecut=40 / intra_refresh=0 / rc_lookahead=40 / rc=2pass / mbtree=1 / bitrate=7924 / ratetol=1.0 / qcomp=0.60 / qpmin=10 / qpmax=41 / qpstep=4 / cplxblur=20.0 / qblur=0.5 / ip_ratio=1.40 / aq=1:0.60
Default : Yes
Forced : No

Audio
ID : 2
Format : DTS
Format/Info : Digital Theater Systems
Codec ID : A_DTS
Duration : 1 h 15 min
Bit rate mode : Constant
Bit rate : 1 509 kb/s
Channel(s) : 6 channels
Channel layout : C L R Ls Rs LFE
Sampling rate : 48.0 kHz
Frame rate : 93.750 FPS (512 SPF)
Bit depth : 24 bits
Compression mode : Lossy
Stream size : 819 MiB (16%)
Title : English [email protected] 6 chnls
Language : English
Default : Yes
Forced : No

Text #1
ID : 3
Format : UTF-8
Codec ID : S_TEXT/UTF8
Codec ID/Info : UTF-8 Plain Text
Duration : 1 h 11 min
Bit rate : 46 b/s
Count of elements : 688
Stream size : 24.4 KiB (0%)
Language : English
Default : Yes
Forced : No

Text #2
ID : 4
Format : UTF-8
Codec ID : S_TEXT/UTF8
Codec ID/Info : UTF-8 Plain Text
Duration : 1 h 12 min
Bit rate : 48 b/s
Count of elements : 691
Stream size : 25.7 KiB (0%)
Language : Turkish
Default : No
Forced : No

Menu
00:00:00.000 : en:00:00:00.000
00:09:57.597 : en:00:09:57.597
00:20:08.374 : en:00:20:08.374
00:32:59.477 : en:00:32:59.477
00:41:12.011 : en:00:41:12.011
00:49:04.400 : en:00:49:04.400
01:00:22.244 : en:01:00:22.244
01:10:28.224 : en:01:10:28.224

[Image: 1.jpg]

[Image: 2.jpg]

[Image: tdown.png]

This Code Only Show For Users
Reply


Possibly Related Threads…
Thread Author Replies Views Last Post
  Batman Hush (2019) Bluray 1080p TR-EN x264-ROVERS admin 0 5 1 hour ago
Last Post: admin
  DC Showcase The Spectre (2010) BluRay 1080p DTS x264-PRoDJi admin 2 333 07-24-2019, 06:27 PM
Last Post: admin
  DC Universe Animaton Movie (1993-2008) Boxset Bluray 1080p TR-EN x264 DTS 5.1-PRoDJi admin 0 92 07-20-2019, 05:30 PM
Last Post: admin
  Incendies (2010) Bluray 1080p DUAL DTS x264-NoGroup admin 0 137 05-13-2019, 03:15 PM
Last Post: admin
  The House (1985-1992) Collection BluRay 1080p DTS x264-PRoDJi admin 3 456 05-13-2019, 02:39 PM
Last Post: Brooks

Forum Jump:


Users browsing this thread: 1 Guest(s)

Powered By MyBB
Theme By Audentio Design
Updated By iAndrew | 2018