Thread Rating:
  • 0 Vote(s) - 0 Average
  • 1
  • 2
  • 3
  • 4
  • 5

[-]
Tags
bluray band avc 1080p of brothers 1 remux 2001 dts 5

  Band of Brothers (2001) Bluray Remux 1080p AVC DTS 5.1
#1
Band of Brothers (2001) Bluray Remux 1080p AVC DTS 5.1

[Image: tt0185906.jpg]

[Image: imdb.png]
https://www.imdb.com/title/tt0185906/

[Image: info.png]
Band of Brothers 01 Currahee 2001 EN.mkv
Format                      : Matroska
Format version              : Version 4 / Version 2
File size                   : 20.2 GiB
Duration                    : 1 h 13 min
Overall bit rate mode       : Variable
Overall bit rate            : 39.6 Mb/s
Movie name                  : Band of Brothers 01 Currahee
Encoded date                : UTC 2018-02-12 20:27:54
Writing application         : mkvmerge v20.0.0 ('I Am The Sun') 64-bit
Writing library             : libebml v1.3.5 + libmatroska v1.4.8

Video
ID                          : 1
Format                      : AVC
Format/Info                 : Advanced Video Codec
Format profile              : [email protected]
Format settings             : CABAC / 4 Ref Frames
Format settings, CABAC      : Yes
Format settings, ReFrames   : 4 frames
Codec ID                    : V_MPEG4/ISO/AVC
Duration                    : 1 h 13 min
Bit rate mode               : Variable
Bit rate                    : 37.6 Mb/s
Maximum bit rate            : 40.0 Mb/s
Width                       : 1 920 pixels
Height                      : 1 080 pixels
Display aspect ratio        : 16:9
Frame rate mode             : Constant
Frame rate                  : 23.976 (24000/1001) FPS
Color space                 : YUV
Chroma subsampling          : 4:2:0
Bit depth                   : 8 bits
Scan type                   : Progressive
Bits/(Pixel*Frame)          : 0.756
Stream size                 : 19.2 GiB (95%)
Title                       : Band of Brothers 01 Currahee
Language                    : English
Default                     : Yes
Forced                      : No
Color range                 : Limited
Color primaries             : BT.709
Transfer characteristics    : BT.709
Matrix coefficients         : BT.709

Audio
ID                          : 2
Format                      : DTS
Format/Info                 : Digital Theater Systems
Format profile              : MA / Core
Codec ID                    : A_DTS
Duration                    : 1 h 13 min
Bit rate mode               : Variable / Constant
Bit rate                    : 1 970 kb/s / 1 509 kb/s
Channel(s)                  : 6 channels
Channel positions           : Front: L C R, Side: L R, LFE
Sampling rate               : 48.0 kHz
Frame rate                  : 93.750 FPS (512 SPF)
Bit depth                   : 16 bits
Compression mode            : Lossless / Lossy
Stream size                 : 1.01 GiB (5%)
Title                       : English
Language                    : English
Default                     : Yes
Forced                      : No

Text #1
ID                          : 3
Format                      : UTF-8
Codec ID                    : S_TEXT/UTF8
Codec ID/Info               : UTF-8 Plain Text
Duration                    : 1 h 5 min
Bit rate                    : 52 b/s
Count of elements           : 670
Stream size                 : 25.1 KiB (0%)
Title                       : English
Language                    : English
Default                     : No
Forced                      : No

Text #2
ID                          : 4
Format                      : PGS
Muxing mode                 : zlib
Codec ID                    : S_HDMV/PGS
Codec ID/Info               : Picture based subtitle format used on BDs/HD-DVDs
Duration                    : 1 h 9 min
Bit rate                    : 30.7 kb/s
Count of elements           : 1468
Stream size                 : 15.3 MiB (0%)
Title                       : Turkish
Language                    : Turkish
Default                     : Yes
Forced                      : No

[Image: Y7oNmy.jpg]

[Image: D0yA1I.jpg]

[Image: tdown.png]

For Only Vip Members

Band of Brothers (2001) Bluray Remux 1080p AVC DTS 5.1 VIP
Reply


Possibly Related Threads…
Thread Author Replies Views Last Post
  Rush Hour 1-2-3 (1998-2001-2007) Bluray REMUX 1080p TR-EN DD 5.1 x264-TURG admin 0 200 02-05-2020, 11:18 AM
Last Post: admin
  The Sisters Brothers (2018) Bluray Remux 1080p AVC DTS-HD MA 5.1 admin 0 409 08-23-2019, 01:21 PM
Last Post: admin
  Le Pacte des Loups (2001) Bluray Remux 1080p AVC DTS-HD MA 5.1 admin 0 435 08-21-2019, 07:28 PM
Last Post: admin
  The Royal Tenenbaums (2001) Bluray Remux 1080p TR EN AVC DTS-HD MA 5.1 admin 0 386 08-10-2019, 09:39 AM
Last Post: admin
  The Piano Teacher (2001) Bluray Remux 1080p AVC DTS-HD MA 5.1 admin 0 342 07-30-2019, 10:39 AM
Last Post: admin

Forum Jump:


Users browsing this thread: 1 Guest(s)

Powered By MyBB
Theme By Audentio Design
Updated By iAndrew | 2018