Thread Rating:
  • 0 Vote(s) - 0 Average
  • 1
  • 2
  • 3
  • 4
  • 5

[-]
Tags
in bluray 1995 boys duology x264 1080p prodji 2003 bad mastered 4k dts

  Bad Boys (1995-2003) Duology Mastered In 4K BluRay 1080p DTS x264-PRoDJi
#1
Bad Boys (1995-2003) Duology Mastered In 4K BluRay 1080p DTS x264-PRoDJi

[Image: badboys.jpg]

[Image: imdb.png]
https://www.imdb.com/title/tt0112442/
https://www.imdb.com/title/tt0172156/

[Image: info.png]
Format                                   : Matroska
Format version                           : Version 4
File size                                : 10.7 GiB
Duration                                 : 1 h 58 min
Overall bit rate                         : 12.8 Mb/s
Encoded date                             : UTC 2017-07-17 10:46:43
Writing application                      : mkvmerge v13.0.0 ('The Juggler') 64bit
Writing library                          : libebml v1.3.4 + libmatroska v1.4.5

Video
ID                                       : 1
Format                                   : AVC
Format/Info                              : Advanced Video Codec
Format profile                           : [email protected]
Format settings                          : CABAC / 3 Ref Frames
Format settings, CABAC                   : Yes
Format settings, RefFrames               : 3 frames
Codec ID                                 : V_MPEG4/ISO/AVC
Duration                                 : 1 h 58 min
Bit rate                                 : 10.5 Mb/s
Width                                    : 1 920 pixels
Height                                   : 1 036 pixels
Display aspect ratio                     : 1.85:1
Frame rate mode                          : Constant
Frame rate                               : 23.976 (24000/1001) FPS
Color space                              : YUV
Chroma subsampling                       : 4:2:0
Bit depth                                : 8 bits
Scan type                                : Progressive
Bits/(Pixel*Frame)                       : 0.220
Stream size                              : 8.70 GiB (82%)
Writing library                          : x264 core 152 r2851 ba24899
Encoding settings                        : cabac=1 / ref=4 / deblock=1:-1:-1 / analyse=0x3:0x113 / me=umh / subme=9 / psy=1 / psy_rd=1.00:0.00 / mixed_ref=1 / me_range=24 / chroma_me=1 / trellis=2 / 8x8dct=1 / cqm=2 / deadzone=21,11 / fast_pskip=1 / chroma_qp_offset=-5 / threads=12 / lookahead_threads=1 / sliced_threads=0 / nr=0 / decimate=0 / interlaced=0 / bluray_compat=0 / constrained_intra=0 / bframes=5 / b_pyramid=1 / b_adapt=2 / b_bias=2 / direct=3 / weightb=1 / open_gop=0 / weightp=2 / keyint=230 / keyint_min=22 / scenecut=40 / intra_refresh=0 / rc_lookahead=45 / rc=2pass / mbtree=1 / bitrate=10477 / ratetol=1.0 / qcomp=0.60 / qpmin=10 / qpmax=41 / qpstep=4 / cplxblur=20.0 / qblur=0.5 / ip_ratio=1.30 / aq=1:1.00
Language                                 : English
Default                                  : Yes
Forced                                   : No

Audio #1
ID                                       : 2
Format                                   : DTS
Format/Info                              : Digital Theater Systems
Codec ID                                 : A_DTS
Duration                                 : 1 h 58 min
Bit rate mode                            : Constant
Bit rate                                 : 1 509 kb/s
Channel(s)                               : 6 channels
Channel layout                           : C L R Ls Rs LFE
Sampling rate                            : 48.0 kHz
Frame rate                               : 93.750 FPS (512 SPF)
Bit depth                                : 24 bits
Compression mode                         : Lossy
Stream size                              : 1.25 GiB (12%)
Title                                    : English [email protected] 6 chnls
Language                                 : English
Default                                  : Yes
Forced                                   : No

Audio #2
ID                                       : 3
Format                                   : AC-3
Format/Info                              : Audio Coding 3
Commercial name                          : Dolby Digital
Codec ID                                 : A_AC3
Duration                                 : 1 h 58 min
Bit rate mode                            : Constant
Bit rate                                 : 192 kb/s
Channel(s)                               : 2 channels
Channel layout                           : L R
Sampling rate                            : 48.0 kHz
Frame rate                               : 31.250 FPS (1536 SPF)
Bit depth                                : 16 bits
Compression mode                         : Lossy
Delay relative to video                  : 4 ms
Stream size                              : 163 MiB (1%)
Title                                    : 192Kbps 2 chnls AC3 Turkish
Language                                 : Turkish
Service kind                             : Complete Main
Default                                  : No
Forced                                   : No

Audio #3
ID                                       : 4
Format                                   : AC-3
Format/Info                              : Audio Coding 3
Commercial name                          : Dolby Digital
Codec ID                                 : A_AC3
Duration                                 : 1 h 58 min
Bit rate mode                            : Constant
Bit rate                                 : 192 kb/s
Channel(s)                               : 2 channels
Channel layout                           : L R
Sampling rate                            : 48.0 kHz
Frame rate                               : 31.250 FPS (1536 SPF)
Bit depth                                : 16 bits
Compression mode                         : Lossy
Stream size                              : 163 MiB (1%)
Title                                    : Commentary with Director Michael Bay
Language                                 : English
Service kind                             : Complete Main
Default                                  : No
Forced                                   : No

Text #1
ID                                       : 5
Format                                   : PGS
Muxing mode                              : zlib
Codec ID                                 : S_HDMV/PGS
Codec ID/Info                            : Picture based subtitle format used on BDs/HD-DVDs
Duration                                 : 1 h 54 min
Bit rate                                 : 38.7 kb/s
Count of elements                        : 3318
Stream size                              : 31.6 MiB (0%)
Title                                    : English 37,171 kbps
Language                                 : English
Default                                  : Yes
Forced                                   : No

Text #2
ID                                       : 6
Format                                   : PGS
Muxing mode                              : zlib
Codec ID                                 : S_HDMV/PGS
Codec ID/Info                            : Picture based subtitle format used on BDs/HD-DVDs
Duration                                 : 1 h 57 min
Bit rate                                 : 46.9 kb/s
Count of elements                        : 3945
Stream size                              : 39.3 MiB (0%)
Title                                    : English 46,295 kbps
Language                                 : English
Default                                  : No
Forced                                   : No

Text #3
ID                                       : 7
Format                                   : PGS
Muxing mode                              : zlib
Codec ID                                 : S_HDMV/PGS
Codec ID/Info                            : Picture based subtitle format used on BDs/HD-DVDs
Duration                                 : 1 h 54 min
Bit rate                                 : 18.3 kb/s
Count of elements                        : 3396
Stream size                              : 14.9 MiB (0%)
Title                                    : Arabic 17,558 kbps
Language                                 : Arabic
Default                                  : No
Forced                                   : No

Text #4
ID                                       : 8
Format                                   : PGS
Muxing mode                              : zlib
Codec ID                                 : S_HDMV/PGS
Codec ID/Info                            : Picture based subtitle format used on BDs/HD-DVDs
Duration                                 : 1 h 54 min
Bit rate                                 : 35.1 kb/s
Count of elements                        : 3478
Stream size                              : 28.6 MiB (0%)
Title                                    : Bulgarian 33,703 kbps
Language                                 : Bulgarian
Default                                  : No
Forced                                   : No

Text #5
ID                                       : 9
Format                                   : PGS
Muxing mode                              : zlib
Codec ID                                 : S_HDMV/PGS
Codec ID/Info                            : Picture based subtitle format used on BDs/HD-DVDs
Duration                                 : 1 h 54 min
Bit rate                                 : 29.7 kb/s
Count of elements                        : 3472
Stream size                              : 24.2 MiB (0%)
Title                                    : Czech 28,477 kbps
Language                                 : Czech
Default                                  : No
Forced                                   : No

Text #6
ID                                       : 10
Format                                   : PGS
Muxing mode                              : zlib
Codec ID                                 : S_HDMV/PGS
Codec ID/Info                            : Picture based subtitle format used on BDs/HD-DVDs
Duration                                 : 1 h 54 min
Bit rate                                 : 37.3 kb/s
Count of elements                        : 3418
Stream size                              : 30.5 MiB (0%)
Title                                    : Danish 35,860 kbps
Language                                 : Danish
Default                                  : No
Forced                                   : No

Text #7
ID                                       : 11
Format                                   : PGS
Muxing mode                              : zlib
Codec ID                                 : S_HDMV/PGS
Codec ID/Info                            : Picture based subtitle format used on BDs/HD-DVDs
Duration                                 : 1 h 54 min
Bit rate                                 : 33.5 kb/s
Count of elements                        : 3382
Stream size                              : 27.3 MiB (0%)
Title                                    : Dutch 32,141 kbps
Language                                 : Dutch
Default                                  : No
Forced                                   : No

Text #8
ID                                       : 12
Format                                   : PGS
Muxing mode                              : zlib
Codec ID                                 : S_HDMV/PGS
Codec ID/Info                            : Picture based subtitle format used on BDs/HD-DVDs
Duration                                 : 1 h 54 min
Bit rate                                 : 35.2 kb/s
Count of elements                        : 3084
Stream size                              : 28.7 MiB (0%)
Title                                    : Finnish 33,762 kbps
Default                                  : No
Forced                                   : No

Text #9
ID                                       : 13
Format                                   : PGS
Muxing mode                              : zlib
Codec ID                                 : S_HDMV/PGS
Codec ID/Info                            : Picture based subtitle format used on BDs/HD-DVDs
Duration                                 : 1 h 57 min
Bit rate                                 : 31.6 kb/s
Count of elements                        : 3390
Stream size                              : 26.6 MiB (0%)
Title                                    : French 31,351 kbps
Language                                 : French
Default                                  : No
Forced                                   : No

Text #10
ID                                       : 14
Format                                   : PGS
Muxing mode                              : zlib
Codec ID                                 : S_HDMV/PGS
Codec ID/Info                            : Picture based subtitle format used on BDs/HD-DVDs
Duration                                 : 1 h 54 min
Bit rate                                 : 38.7 kb/s
Count of elements                        : 3452
Stream size                              : 31.5 MiB (0%)
Title                                    : German 37,101 kbps
Language                                 : German
Default                                  : No
Forced                                   : No

Text #11
ID                                       : 15
Format                                   : PGS
Muxing mode                              : zlib
Codec ID                                 : S_HDMV/PGS
Codec ID/Info                            : Picture based subtitle format used on BDs/HD-DVDs
Duration                                 : 1 h 54 min
Bit rate                                 : 28.2 kb/s
Count of elements                        : 3304
Stream size                              : 23.0 MiB (0%)
Title                                    : Hebrew 27,062 kbps
Language                                 : Hebrew
Default                                  : No
Forced                                   : No

Text #12
ID                                       : 16
Format                                   : PGS
Muxing mode                              : zlib
Codec ID                                 : S_HDMV/PGS
Codec ID/Info                            : Picture based subtitle format used on BDs/HD-DVDs
Duration                                 : 1 h 54 min
Bit rate                                 : 33.7 kb/s
Count of elements                        : 3472
Stream size                              : 27.5 MiB (0%)
Title                                    : Hindi 32,322 kbps
Language                                 : Hindi
Default                                  : No
Forced                                   : No

Text #13
ID                                       : 17
Format                                   : PGS
Muxing mode                              : zlib
Codec ID                                 : S_HDMV/PGS
Codec ID/Info                            : Picture based subtitle format used on BDs/HD-DVDs
Duration                                 : 1 h 54 min
Bit rate                                 : 33.6 kb/s
Count of elements                        : 3376
Stream size                              : 27.4 MiB (0%)
Title                                    : Hungarian 32,261 kbps
Language                                 : Hungarian
Default                                  : No
Forced                                   : No

Text #14
ID                                       : 18
Format                                   : PGS
Muxing mode                              : zlib
Codec ID                                 : S_HDMV/PGS
Codec ID/Info                            : Picture based subtitle format used on BDs/HD-DVDs
Duration                                 : 1 h 54 min
Bit rate                                 : 36.5 kb/s
Count of elements                        : 3470
Stream size                              : 29.8 MiB (0%)
Title                                    : Icelandic 35,042 kbps
Language                                 : Icelandic
Default                                  : No
Forced                                   : No

Text #15
ID                                       : 19
Format                                   : PGS
Muxing mode                              : zlib
Codec ID                                 : S_HDMV/PGS
Codec ID/Info                            : Picture based subtitle format used on BDs/HD-DVDs
Duration                                 : 1 h 54 min
Bit rate                                 : 30.6 kb/s
Count of elements                        : 3260
Stream size                              : 25.0 MiB (0%)
Title                                    : Greek 29,403 kbps
Language                                 : Greek
Default                                  : No
Forced                                   : No

Text #16
ID                                       : 20
Format                                   : PGS
Muxing mode                              : zlib
Codec ID                                 : S_HDMV/PGS
Codec ID/Info                            : Picture based subtitle format used on BDs/HD-DVDs
Duration                                 : 1 h 54 min
Bit rate                                 : 41.6 kb/s
Count of elements                        : 3392
Stream size                              : 33.9 MiB (0%)
Title                                    : Italian 39,935 kbps
Language                                 : Italian
Default                                  : No
Forced                                   : No

Text #17
ID                                       : 21
Format                                   : PGS
Muxing mode                              : zlib
Codec ID                                 : S_HDMV/PGS
Codec ID/Info                            : Picture based subtitle format used on BDs/HD-DVDs
Duration                                 : 1 h 54 min
Bit rate                                 : 32.8 kb/s
Count of elements                        : 3468
Stream size                              : 26.7 MiB (0%)
Title                                    : Norwegian 31,432 kbps
Language                                 : Norwegian
Default                                  : No
Forced                                   : No

Text #18
ID                                       : 22
Format                                   : PGS
Muxing mode                              : zlib
Codec ID                                 : S_HDMV/PGS
Codec ID/Info                            : Picture based subtitle format used on BDs/HD-DVDs
Duration                                 : 1 h 54 min
Bit rate                                 : 28.1 kb/s
Count of elements                        : 3250
Stream size                              : 22.9 MiB (0%)
Title                                    : Polish 26,940 kbps
Language                                 : Polish
Default                                  : No
Forced                                   : No

Text #19
ID                                       : 23
Format                                   : PGS
Muxing mode                              : zlib
Codec ID                                 : S_HDMV/PGS
Codec ID/Info                            : Picture based subtitle format used on BDs/HD-DVDs
Duration                                 : 1 h 54 min
Bit rate                                 : 34.9 kb/s
Count of elements                        : 3428
Stream size                              : 28.5 MiB (0%)
Title                                    : Portuguese 33,563 kbps
Language                                 : Portuguese
Default                                  : No
Forced                                   : No

Text #20
ID                                       : 24
Format                                   : PGS
Muxing mode                              : zlib
Codec ID                                 : S_HDMV/PGS
Codec ID/Info                            : Picture based subtitle format used on BDs/HD-DVDs
Duration                                 : 1 h 54 min
Bit rate                                 : 37.4 kb/s
Count of elements                        : 3324
Stream size                              : 30.5 MiB (0%)
Title                                    : Romanian 35,923 kbps
Language                                 : Raeto-Romance
Default                                  : No
Forced                                   : No

Text #21
ID                                       : 25
Format                                   : PGS
Muxing mode                              : zlib
Codec ID                                 : S_HDMV/PGS
Codec ID/Info                            : Picture based subtitle format used on BDs/HD-DVDs
Duration                                 : 1 h 54 min
Bit rate                                 : 37.2 kb/s
Count of elements                        : 3360
Stream size                              : 30.4 MiB (0%)
Title                                    : Slovak 35,736 kbps
Language                                 : Slovak
Default                                  : No
Forced                                   : No

Text #22
ID                                       : 26
Format                                   : PGS
Muxing mode                              : zlib
Codec ID                                 : S_HDMV/PGS
Codec ID/Info                            : Picture based subtitle format used on BDs/HD-DVDs
Duration                                 : 1 h 54 min
Bit rate                                 : 36.6 kb/s
Count of elements                        : 3386
Stream size                              : 29.8 MiB (0%)
Title                                    : Spanish 35,078 kbps
Language                                 : Spanish
Default                                  : No
Forced                                   : No

Text #23
ID                                       : 27
Format                                   : PGS
Muxing mode                              : zlib
Codec ID                                 : S_HDMV/PGS
Codec ID/Info                            : Picture based subtitle format used on BDs/HD-DVDs
Duration                                 : 1 h 54 min
Bit rate                                 : 32.3 kb/s
Count of elements                        : 3430
Stream size                              : 26.4 MiB (0%)
Title                                    : Swedish 31,028 kbps
Language                                 : Swedish
Default                                  : No
Forced                                   : No

Text #24
ID                                       : 28
Format                                   : PGS
Muxing mode                              : zlib
Codec ID                                 : S_HDMV/PGS
Codec ID/Info                            : Picture based subtitle format used on BDs/HD-DVDs
Duration                                 : 1 h 54 min
Bit rate                                 : 32.4 kb/s
Count of elements                        : 3346
Stream size                              : 26.4 MiB (0%)
Title                                    : Turkish 31,103 kbps
Language                                 : Turkish
Default                                  : No
Forced                                   : No

Text #25
ID                                       : 29
Format                                   : PGS
Muxing mode                              : zlib
Codec ID                                 : S_HDMV/PGS
Codec ID/Info                            : Picture based subtitle format used on BDs/HD-DVDs
Duration                                 : 1 h 54 min
Bit rate                                 : 47.8 kb/s
Count of elements                        : 3621
Stream size                              : 39.3 MiB (0%)
Title                                    : English 46,249 kbps
Language                                 : English
Default                                  : No
Forced                                   : No

Text #26
ID                                       : 30
Format                                   : PGS
Muxing mode                              : zlib
Codec ID                                 : S_HDMV/PGS
Codec ID/Info                            : Picture based subtitle format used on BDs/HD-DVDs
Duration                                 : 1 h 54 min
Bit rate                                 : 39.6 kb/s
Count of elements                        : 2687
Stream size                              : 32.5 MiB (0%)
Title                                    : Dutch 38,265 kbps
Language                                 : Dutch
Default                                  : No
Forced                                   : No

Text #27
ID                                       : 31
Format                                   : PGS
Muxing mode                              : zlib
Codec ID                                 : S_HDMV/PGS
Codec ID/Info                            : Picture based subtitle format used on BDs/HD-DVDs
Duration                                 : 1 h 54 min
Bit rate                                 : 41.5 kb/s
Count of elements                        : 3576
Stream size                              : 34.1 MiB (0%)
Title                                    : French 40,091 kbps
Language                                 : French
Default                                  : No
Forced                                   : No

Text #28
ID                                       : 32
Format                                   : PGS
Muxing mode                              : zlib
Codec ID                                 : S_HDMV/PGS
Codec ID/Info                            : Picture based subtitle format used on BDs/HD-DVDs
Duration                                 : 1 h 54 min
Bit rate                                 : 47.6 kb/s
Count of elements                        : 3530
Stream size                              : 39.1 MiB (0%)
Title                                    : German 46,032 kbps
Language                                 : German
Default                                  : No
Forced                                   : No

Text #29
ID                                       : 33
Format                                   : PGS
Muxing mode                              : zlib
Codec ID                                 : S_HDMV/PGS
Codec ID/Info                            : Picture based subtitle format used on BDs/HD-DVDs
Duration                                 : 1 h 54 min
Bit rate                                 : 48.3 kb/s
Count of elements                        : 3592
Stream size                              : 39.7 MiB (0%)
Title                                    : Italian 46,685 kbps
Language                                 : Italian
Default                                  : No
Forced                                   : No

Text #30
ID                                       : 34
Format                                   : PGS
Muxing mode                              : zlib
Codec ID                                 : S_HDMV/PGS
Codec ID/Info                            : Picture based subtitle format used on BDs/HD-DVDs
Duration                                 : 1 h 54 min
Bit rate                                 : 34.9 kb/s
Count of elements                        : 3606
Stream size                              : 28.7 MiB (0%)
Title                                    : Spanish 33,764 kbps
Language                                 : Spanish
Default                                  : No
Forced                                   : No

Text #31
ID                                       : 35
Format                                   : PGS
Muxing mode                              : zlib
Codec ID                                 : S_HDMV/PGS
Codec ID/Info                            : Picture based subtitle format used on BDs/HD-DVDs
Duration                                 : 1 h 36 min
Bit rate                                 : 107 b/s
Count of elements                        : 12
Stream size                              : 76.0 KiB (0%)
Title                                    : Russian 0,087 kbps
Language                                 : Russian
Default                                  : No
Forced                                   : No

Menu
00:00:00.000                             : en:Start
00:05:07.472                             : en:Heroin Robbery
00:12:01.971                             : enTongueeeking & Entering
00:17:38.098                             : en:Rich Cop, Poor Cop
00:23:33.203                             : en:Eddie's Surprise Party
00:31:31.764                             : en:Julie's Escape
00:41:09.132                             : en:Two Conversations
00:47:35.310                             : en:At Lois'
00:54:37.357                             : en:Julie Asks for Mike
01:04:05.675                             : en:In Julie's Apartment
01:13:49.800                             : en:Making Their Getaway
01:20:21.483                             : en:Mike's Place
01:27:58.523                             : en:Real Bad Headache
01:34:54.271                             : enTongueroblems in the Lab
01:43:09.308                             : en:Julie Meets "Marcus"
01:50:51.353                             : en:In the Men's Room

[Image: 1.jpg]

[Image: 2.jpg]

[Image: tdown.png]

For Only Vip Members
Reply


Possibly Related Threads...
Thread Author Replies Views Last Post
  Batman (1989) Bluray 1080p DUAL DD5.1 x264-fidelio admin 0 16 Yesterday, 09:28 PM
Last Post: admin
  I Spit on Your Grave Deja Vu (2019) Bluray 1080p x264-EVO admin 0 49 04-24-2019, 02:11 PM
Last Post: admin
  How to Train Your Dragon The Hidden World (2019) Bluray 1080p DUAL DD5.1 x264-CHD admin 0 51 04-24-2019, 12:35 PM
Last Post: admin
  Holmes and Watson (2018) Bluray 1080p DUAL DD5.1 x264-BdC admin 0 52 04-24-2019, 10:24 AM
Last Post: admin
  The Mule (2018) Bluray 1080p DUAL AC3 x264-BdC admin 0 75 04-23-2019, 08:27 PM
Last Post: admin

Forum Jump:


Users browsing this thread: 1 Guest(s)

Powered By MyBB
Theme By Audentio Design
Updated By iAndrew | 2018