Thread Rating:
  • 0 Vote(s) - 0 Average
  • 1
  • 2
  • 3
  • 4
  • 5

[-]
Tags
1997 international austin bluray powers man 1080p of 1 vc remux mystery 5 truehd

  Austin Powers International Man of Mystery (1997) Bluray Remux 1080p VC-1 TrueHD 5.1
#1
Austin Powers International Man of Mystery (1997) Bluray Remux 1080p VC-1 TrueHD 5.1

[Image: tt0118655.jpg]

[Image: imdb.png]
https://www.imdb.com/title/tt0118655/

[Image: info.png]
Austin Powers International Man of Mystery 1997 EN.mkv
Format                      : Matroska
Format version              : Version 4 / Version 2
File size                   : 18.1 GiB
Duration                    : 1 h 29 min
Overall bit rate mode       : Variable
Overall bit rate            : 28.9 Mb/s
Movie name                  : Austin Powers: International Man of Mystery
Encoded date                : UTC 2015-01-17 22:32:50
Writing application         : mkvmerge v7.5.0 ('Glass Culture') 64bit built on Jan  4 2015 16:48:44
Writing library             : libebml v1.3.1 + libmatroska v1.4.2

Video
ID                          : 1
Format                      : VC-1
Format profile              : [email protected]
Codec ID                    : V_MS/VFW/FOURCC / WVC1
Codec ID/Hint               : Microsoft
Duration                    : 1 h 29 min
Bit rate                    : 26.9 Mb/s
Width                       : 1 920 pixels
Height                      : 1 080 pixels
Display aspect ratio        : 16:9
Frame rate mode             : Constant
Frame rate                  : 23.976 (24000/1001) FPS
Color space                 : YUV
Chroma subsampling          : 4:2:0
Bit depth                   : 8 bits
Scan type                   : Progressive
Compression mode            : Lossy
Bits/(Pixel*Frame)          : 0.542
Stream size                 : 16.9 GiB (93%)
Title                       : Austin Powers: International Man of Mystery
Language                    : English
Default                     : Yes
Forced                      : No

Audio
ID                          : 2
Format                      : TrueHD
Codec ID                    : A_TRUEHD
Duration                    : 1 h 29 min
Bit rate mode               : Variable
Bit rate                    : 1 820 kb/s
Maximum bit rate            : 3 069 kb/s
Channel(s)                  : 6 channels
Channel positions           : Front: L C R, Side: L R, LFE
Sampling rate               : 48.0 kHz
Frame rate                  : 1 200.000 FPS (40 spf)
Compression mode            : Lossless
Stream size                 : 1.14 GiB (6%)
Title                       : English
Language                    : English
Default                     : Yes
Forced                      : No

Text #1
ID                          : 3
Format                      : PGS
Muxing mode                 : zlib
Codec ID                    : S_HDMV/PGS
Codec ID/Info               : Picture based subtitle format used on BDs/HD-DVDs
Duration                    : 1 h 28 min
Bit rate                    : 17.6 kb/s
Count of elements           : 2564
Stream size                 : 11.2 MiB (0%)
Title                       : English
Language                    : English
Default                     : No
Forced                      : No

Text #2
ID                          : 4
Format                      : PGS
Muxing mode                 : zlib
Codec ID                    : S_HDMV/PGS
Codec ID/Info               : Picture based subtitle format used on BDs/HD-DVDs
Duration                    : 1 h 26 min
Bit rate                    : 16.0 kb/s
Count of elements           : 2810
Stream size                 : 9.91 MiB (0%)
Title                       : Turkish
Language                    : Turkish
Default                     : Yes
Forced                      : No

[Image: vlcsnap-error307-jpg-6ea06b5637978ab22f4...496759.jpg]

[Image: vlcsnap-error791-jpg-f7880c6653a74ebb85a...f91d4a.jpg]

[Image: tdown.png]

For Only Vip Members

Austin Powers International Man of Mystery (1997) Bluray Remux 1080p VC-1 TrueHD 5.1 VIP
Reply


Possibly Related Threads…
Thread Author Replies Views Last Post
  Contact (1997) Bluray REMUX 1080p EN-TR VC-1 TrueHD 5.1[ AbrA 0 103 11-11-2020, 11:51 AM
Last Post: AbrA
  The International (2009) Bluray REMUX 1080p AVC TrueHD 5.1-HUSe AbrA 0 116 10-09-2020, 04:43 PM
Last Post: AbrA
  Speed 2 Cruise Control (1997) Bluray REMUX 1080p AVC DTS-HD MA 5.1-HUSe AbrA 0 505 06-23-2020, 01:51 PM
Last Post: AbrA
  Men in Black International (2019) Bluray Remux 1080p AVC TrueHD 7.1 admin 0 888 08-31-2019, 11:48 AM
Last Post: admin
  The Postman (1997) Bluray Remux 1080p VC-1 5.1 admin 0 725 08-31-2019, 06:59 AM
Last Post: admin

Forum Jump:


Users browsing this thread: 1 Guest(s)

Powered By MyBB
Theme By Audentio Design
Updated By iAndrew | 2018