Thread Rating:
  • 0 Vote(s) - 0 Average
  • 1
  • 2
  • 3
  • 4
  • 5

[-]
Tags
in austin bluray powers 2002 1080p 1 vc remux 5 truehd goldmember

 
  Austin Powers in Goldmember (2002) Bluray Remux 1080p VC-1 TrueHD 5.1
#1
Austin Powers in Goldmember (2002) Bluray Remux 1080p VC-1 TrueHD 5.1

[Image: tt0295178.jpg]

[Image: imdb.png]
https://www.imdb.com/title/tt0295178/

[Image: info.png]
Austin Powers in Goldmember 2002 EN.mkv
Format                      : Matroska
Format version              : Version 4 / Version 2
File size                   : 16.8 GiB
Duration                    : 1 h 34 min
Overall bit rate mode       : Variable
Overall bit rate            : 25.4 Mb/s
Movie name                  : Austin Powers in Goldmember
Encoded date                : UTC 2015-01-17 21:44:55
Writing application         : mkvmerge v7.5.0 ('Glass Culture') 64bit built on Jan  4 2015 16:48:44
Writing library             : libebml v1.3.1 + libmatroska v1.4.2

Video
ID                          : 1
Format                      : VC-1
Format profile              : [email protected]
Codec ID                    : V_MS/VFW/FOURCC / WVC1
Codec ID/Hint               : Microsoft
Duration                    : 1 h 34 min
Bit rate                    : 23.7 Mb/s
Width                       : 1 920 pixels
Height                      : 1 080 pixels
Display aspect ratio        : 16:9
Frame rate mode             : Constant
Frame rate                  : 23.976 (24000/1001) FPS
Color space                 : YUV
Chroma subsampling          : 4:2:0
Bit depth                   : 8 bits
Scan type                   : Progressive
Compression mode            : Lossy
Bits/(Pixel*Frame)          : 0.476
Stream size                 : 15.6 GiB (93%)
Title                       : Austin Powers in Goldmember
Language                    : English
Default                     : Yes
Forced                      : No

Audio
ID                          : 2
Format                      : TrueHD
Codec ID                    : A_TRUEHD
Duration                    : 1 h 34 min
Bit rate mode               : Variable
Bit rate                    : 1 612 kb/s
Maximum bit rate            : 3 069 kb/s
Channel(s)                  : 6 channels
Channel positions           : Front: L C R, Side: L R, LFE
Sampling rate               : 48.0 kHz
Frame rate                  : 1 200.000 FPS (40 spf)
Compression mode            : Lossless
Stream size                 : 1.06 GiB (6%)
Title                       : English
Language                    : English
Default                     : Yes
Forced                      : No

Text #1
ID                          : 3
Format                      : PGS
Muxing mode                 : zlib
Codec ID                    : S_HDMV/PGS
Codec ID/Info               : Picture based subtitle format used on BDs/HD-DVDs
Duration                    : 1 h 28 min
Bit rate                    : 17.0 kb/s
Count of elements           : 2954
Stream size                 : 10.8 MiB (0%)
Title                       : English
Language                    : English
Default                     : No
Forced                      : No

Text #2
ID                          : 4
Format                      : PGS
Muxing mode                 : zlib
Codec ID                    : S_HDMV/PGS
Codec ID/Info               : Picture based subtitle format used on BDs/HD-DVDs
Duration                    : 1 h 27 min
Bit rate                    : 14.0 kb/s
Count of elements           : 1754
Stream size                 : 8.73 MiB (0%)
Title                       : Turkish
Language                    : Turkish
Default                     : Yes
Forced                      : No

[Image: vlcsnap-error371-jpg-61ef00f2a2119a37756...af012a.jpg]

[Image: vlcsnap-error672-jpg-c6ce208f2a59761ad89...7574f9.jpg]

[Image: tdown.png]

For Only Vip Members

Austin Powers in Goldmember (2002) Bluray Remux 1080p VC-1 TrueHD 5.1 VIP
Reply


Possibly Related Threads…
Thread Author Replies Views Last Post
  Orange County 2002 1080p Blu-ray Remux AVC DTS-HD MA 5.1 - KRaLiMaRKo KAiJu 0 1 05-20-2022, 12:55 PM
Last Post: KAiJu
  Femme Fatale 2002 1080p Blu-ray Remux AVC DTS-HD MA 5.1-SiCFoI KAiJu 0 29 05-16-2022, 12:50 PM
Last Post: KAiJu
  Wishmaster 4 - The Prophecy Fulfilled 2002 1080p Blu-ray Remux AVC DTS-HD MA 5.1 - KR KAiJu 0 47 04-27-2022, 12:56 PM
Last Post: KAiJu
  Asterix and Obelix Mission Cleopatra 2002 1080p BluRay REMUX AVC DTS-HD MA 5.1-BLURAN KAiJu 0 53 03-31-2022, 05:21 PM
Last Post: KAiJu
  Morvern Callar 2002 1080p Blu-ray Remux AVC DTS-HD MA 5.1-HDT KAiJu 0 63 03-23-2022, 10:42 AM
Last Post: KAiJu

Forum Jump:


Users browsing this thread: 1 Guest(s)

Powered By MyBB
RSS RSS Syndication
Updated By iAndrew | 2022