Thread Rating:
  • 0 Vote(s) - 0 Average
  • 1
  • 2
  • 3
  • 4
  • 5

[-]
Tags
1997 austin bluray powers 2002 x264 1080p prodji trilogy dts

 
  Austin Powers (1997-2002) Trilogy BluRay 1080p DTS x264-PRoDJi
#1
Austin Powers (1997-2002) Trilogy BluRay 1080p DTS x264-PRoDJi

[Image: austing.jpg]

[Image: imdb.png]
https://www.imdb.com/title/tt0118655/
https://www.imdb.com/title/tt0145660/
https://www.imdb.com/title/tt0295178/

[Image: info.png]
Format                                   : Matroska
Format version                           : Version 4
File size                                : 6.52 GiB
Duration                                 : 1 h 29 min
Overall bit rate                         : 10.4 Mb/s
Encoded date                             : UTC 2017-12-28 08:21:34
Writing application                      : mkvmerge v7.2.0 ('On Every Street') 64bit built on Sep 13 2014 15:52:10
Writing library                          : libebml v1.3.0 + libmatroska v1.4.1

Video
ID                                       : 1
Format                                   : AVC
Format/Info                              : Advanced Video Codec
Format profile                           : [email protected]
Format settings                          : CABAC / 4 Ref Frames
Format settings, CABAC                   : Yes
Format settings, RefFrames               : 4 frames
Codec ID                                 : V_MPEG4/ISO/AVC
Duration                                 : 1 h 29 min
Bit rate                                 : 8 449 kb/s
Width                                    : 1 920 pixels
Height                                   : 816 pixels
Display aspect ratio                     : 2.35:1
Frame rate mode                          : Constant
Frame rate                               : 23.976 (24000/1001) FPS
Color space                              : YUV
Chroma subsampling                       : 4:2:0
Bit depth                                : 8 bits
Scan type                                : Progressive
Bits/(Pixel*Frame)                       : 0.225
Stream size                              : 5.16 GiB (79%)
Title                                    : PRoDJi
Writing library                          : x264 core 152 r2851 ba24899
Encoding settings                        : cabac=1 / ref=5 / deblock=1:0:0 / analyse=0x3:0x113 / me=umh / subme=9 / psy=1 / psy_rd=1.00:0.00 / mixed_ref=1 / me_range=24 / chroma_me=1 / trellis=2 / 8x8dct=1 / cqm=2 / deadzone=21,11 / fast_pskip=1 / chroma_qp_offset=-5 / threads=12 / lookahead_threads=1 / sliced_threads=0 / nr=0 / decimate=1 / interlaced=0 / bluray_compat=0 / constrained_intra=0 / bframes=3 / b_pyramid=1 / b_adapt=2 / b_bias=2 / direct=3 / weightb=1 / open_gop=0 / weightp=2 / keyint=230 / keyint_min=22 / scenecut=40 / intra_refresh=0 / rc_lookahead=40 / rc=2pass / mbtree=1 / bitrate=8449 / ratetol=1.0 / qcomp=0.60 / qpmin=10 / qpmax=41 / qpstep=4 / cplxblur=20.0 / qblur=0.5 / ip_ratio=1.40 / aq=1:1.00
Language                                 : English
Default                                  : Yes
Forced                                   : No

Audio #1
ID                                       : 2
Format                                   : DTS
Format/Info                              : Digital Theater Systems
Codec ID                                 : A_DTS
Duration                                 : 1 h 29 min
Bit rate mode                            : Constant
Bit rate                                 : 1 510 kb/s
Channel(s)                               : 6 channels
Channel layout                           : C L R Ls Rs LFE
Sampling rate                            : 48.0 kHz
Frame rate                               : 93.750 FPS (512 SPF)
Bit depth                                : 24 bits
Compression mode                         : Lossy
Stream size                              : 967 MiB (14%)
Title                                    : English [email protected] 6 chnls
Language                                 : English
Default                                  : Yes
Forced                                   : No

Audio #2
ID                                       : 3
Format                                   : AC-3
Format/Info                              : Audio Coding 3
Commercial name                          : Dolby Digital
Codec ID                                 : A_AC3
Duration                                 : 1 h 29 min
Bit rate mode                            : Constant
Bit rate                                 : 448 kb/s
Channel(s)                               : 6 channels
Channel layout                           : L R C LFE Ls Rs
Sampling rate                            : 48.0 kHz
Frame rate                               : 31.250 FPS (1536 SPF)
Bit depth                                : 16 bits
Compression mode                         : Lossy
Stream size                              : 287 MiB (4%)
Title                                    : [email protected] 6 chnls
Language                                 : Turkish
Service kind                             : Complete Main
Default                                  : No
Forced                                   : No

Text #1
ID                                       : 4
Format                                   : UTF-8
Codec ID                                 : S_TEXT/UTF8
Codec ID/Info                            : UTF-8 Plain Text
Language                                 : Turkish
Default                                  : Yes
Forced                                   : No

Text #2
ID                                       : 5
Format                                   : UTF-8
Codec ID                                 : S_TEXT/UTF8
Codec ID/Info                            : UTF-8 Plain Text
Language                                 : English
Default                                  : No
Forced                                   : No

Menu
00:00:00.000                             : enTonguerologue/Main Titles
00:05:21.238                             : enBig Grinr. Evil Escapes
00:07:07.677                             : en:Big Boy Descends
00:08:20.417                             : en:A Hero Is Unthawed
00:13:37.316                             : enBig Grinanger Is My Middle Name
00:15:50.408                             : enBig Grinr. Evil's Million Dollar Plan
00:22:57.334                             : en:Austin's Groovy Jumbo Jet
00:25:41.707                             : en:Scott Evil
00:27:17.010                             : en:"Viva Las Vegas, Baby!"
00:29:28.517                             : en:Living Dangerously
00:31:38.396                             : en:Bathroom Break
00:34:20.558                             : enBig Grinr. Evil's Ultimatum
00:36:13.630                             : en:A Mother Daughter Talk
00:37:42.218                             : en:Austin and Vanessa Hit the Town
00:42:53.738                             : en:Austin Discovers Project Vulcan
00:47:40.691                             : en:Fembots
00:49:29.008                             : en:British Makeshift Headquarters
00:52:12.671                             : en:Group Therapy
00:55:35.249                             : en:Austin Catches up to the 90's
00:58:55.699                             : en:Welcome to Virtucon
01:02:18.151                             : en:An Overly Elaborate Death?
01:10:14.502                             : en:Austin vs. the Fembots
01:14:28.130                             : en:The Final Showdown
01:19:53.789                             : en:Epilogue/End Credits

[Image: tdown.png]

For Only Vip Members
Reply
#2
Thanx for this
Reply


Possibly Related Threads…
Thread Author Replies Views Last Post
  The Scorpion King (2002-2008-2012) 1-2-3 Bluray 1080p EN-TR x264-PRoDJi AbrA 0 47 07-13-2021, 08:57 PM
Last Post: AbrA
  Ocean's Eleven (1960-2018) Collection BluRay 1080p DTS x264-PRoDJi KAiJu 0 78 06-20-2021, 08:40 AM
Last Post: KAiJu
  John Wick (2014-2019) Trilogy BluRay 1080p DTS x264-PRoDJi KAiJu 0 93 06-17-2021, 02:54 PM
Last Post: KAiJu
  L.A Confidential (1997) Bluray 1080p EN-TR DD 5.1 x264 AbrA 0 78 06-04-2021, 12:50 PM
Last Post: AbrA
  They Call Me Mister Tibbs (1970) BluRay 1080p EN-TR DTS x264-PRoDJi AbrA 0 78 05-22-2021, 06:58 PM
Last Post: AbrA

Forum Jump:


Users browsing this thread: 1 Guest(s)

Powered By MyBB
RSS RSS Syndication
Updated By iAndrew | 2021