Thread Rating:
  • 0 Vote(s) - 0 Average
  • 1
  • 2
  • 3
  • 4
  • 5

[-]
Tags
bluray 2015 avc 1080p assassination 1 remux 5 truehd

 
  Assassination (2015) Bluray Remux 1080p AVC TrueHD 5.1
#1
Assassination (2015) Bluray Remux 1080p AVC TrueHD 5.1

[Image: tt3501416.jpg]

[Image: imdb.png]
https://www.imdb.com/title/tt3501416/

[Image: info.png]
Assassination aka Amsal 2015 KO.mkv
Format                      : Matroska
Format version              : Version 4 / Version 2
File size                   : 36.4 GiB
Duration                    : 2 h 19 min
Overall bit rate mode       : Variable
Overall bit rate            : 37.3 Mb/s
Movie name                  : Assassination aka Amsal
Encoded date                : UTC 2017-12-02 19:49:38
Writing application         : mkvmerge v18.0.0 ('Apricity') 64-bit
Writing library             : libebml v1.3.5 + libmatroska v1.4.8

Video
ID                          : 1
Format                      : AVC
Format/Info                 : Advanced Video Codec
Format profile              : [email protected]
Format settings             : CABAC / 4 Ref Frames
Format settings, CABAC      : Yes
Format settings, RefFrames  : 4 frames
Codec ID                    : V_MPEG4/ISO/AVC
Duration                    : 2 h 19 min
Bit rate mode               : Variable
Bit rate                    : 34.6 Mb/s
Maximum bit rate            : 35.0 Mb/s
Width                       : 1 920 pixels
Height                      : 1 080 pixels
Display aspect ratio        : 16:9
Frame rate mode             : Constant
Frame rate                  : 23.976 (24000/1001) FPS
Standard                    : NTSC
Color space                 : YUV
Chroma subsampling          : 4:2:0
Bit depth                   : 8 bits
Scan type                   : Progressive
Bits/(Pixel*Frame)          : 0.695
Stream size                 : 33.8 GiB (93%)
Title                       : Assassination aka Amsal
Language                    : Korean
Default                     : Yes
Forced                      : No
Color range                 : Limited
Color primaries             : BT.709
Transfer characteristics    : BT.709
Matrix coefficients         : BT.709

Audio
ID                          : 2
Format                      : TrueHD
Codec ID                    : A_TRUEHD
Duration                    : 2 h 19 min
Bit rate mode               : Variable
Bit rate                    : 2 627 kb/s
Maximum bit rate            : 4 458 kb/s
Channel(s)                  : 6 channels
Channel positions           : Front: L C R, Side: L R, LFE
Sampling rate               : 96.0 kHz
Frame rate                  : 2 400.000 FPS (40 SPF)
Compression mode            : Lossless
Stream size                 : 2.57 GiB (7%)
Title                       : Korean
Language                    : Korean
Default                     : Yes
Forced                      : No

Text #1
ID                          : 3
Format                      : PGS
Muxing mode                 : zlib
Codec ID                    : S_HDMV/PGS
Codec ID/Info               : Picture based subtitle format used on BDs/HD-DVDs
Duration                    : 2 h 17 min
Bit rate                    : 30.9 kb/s
Count of elements           : 2952
Stream size                 : 30.3 MiB (0%)
Title                       : English
Language                    : English
Default                     : No
Forced                      : No

Text #2
ID                          : 4
Format                      : PGS
Muxing mode                 : zlib
Codec ID                    : S_HDMV/PGS
Codec ID/Info               : Picture based subtitle format used on BDs/HD-DVDs
Duration                    : 2 h 15 min
Bit rate                    : 21.2 kb/s
Count of elements           : 2040
Stream size                 : 20.5 MiB (0%)
Title                       : Turkish
Language                    : Turkish
Default                     : Yes
Forced                      : No

[Image: 46924110395_3931bec8bc_b.jpg]

[Image: 40873683983_ef235b20ea_b.jpg]

[Image: tdown.png]

For Only Vip Members

Assassination (2015) Bluray Remux 1080p AVC TrueHD 5.1 VIP
Reply


Possibly Related Threads…
Thread Author Replies Views Last Post
  Pan 2015 1080p Blu-ray Remux AVC TrueHD Atmos 7.1 - KRaLiMaRKo KAiJu 0 13 05-15-2022, 08:08 AM
Last Post: KAiJu
  Tor dei gui mou yan A.K.A Keeper of Darkness 2015 1080p Blu-ray Remux AVC TrueHD 7.1 KAiJu 0 81 02-02-2022, 09:19 AM
Last Post: KAiJu
  El desconocido 2015 1080p Blu-ray Remux AVC TrueHD 5.1 - KRaLiMaRKo KAiJu 0 148 08-16-2021, 03:33 PM
Last Post: KAiJu
  Parched 2015 1080p Blu-ray Remux AVC TrueHD 5.1 - KRaLiMaRKo KAiJu 0 159 06-09-2021, 07:22 AM
Last Post: KAiJu
  Vice 2015 1080p Blu-ray Remux AVC TrueHD 5.1 - KRaLiMaRKo KAiJu 0 171 05-11-2021, 09:33 AM
Last Post: KAiJu

Forum Jump:


Users browsing this thread: 1 Guest(s)

Powered By MyBB
RSS RSS Syndication
Updated By iAndrew | 2022