Thread Rating:
  • 0 Vote(s) - 0 Average
  • 1
  • 2
  • 3
  • 4
  • 5

[-]
Tags
h264 s07 amzn webdl 1080p ddp 2007 wives trollhd 1 s01 5 army

 
  Army Wives (2007) S01-S07 AMZN WEBDL 1080p DDP 5.1 H264-TrollHD
#1
Army Wives (2007) S01-S07 AMZN WEBDL 1080p DDP 5.1 H264-TrollHD

[Image: tt0859592.jpg]

[Image: imdb.png]
https://www.imdb.com/title/tt0859592/

[Image: info.png]
Complete name                            : Army Wives S01E01 1080p WEB-DL DD+ 5.1 x264-TrollHD.mkv
Format                                  : Matroska
Format version                          : Version 4 / Version 2
File size                                : 4.42 GiB
Duration                                : 42mn 36s
Overall bit rate mode                    : Variable
Overall bit rate                        : 14.9 Mbps
Encoded date                            : UTC 2016-09-25 06:19:39
Writing application                      : mkvmerge v8.3.0 ('Over the Horizon') 64bit
Writing library                          : libebml v1.3.1 + libmatroska v1.4.2
DURATION                                : 00:42:36.721000000
NUMBER_OF_FRAMES                        : 61300
NUMBER_OF_BYTES                          : 4541984334
_STATISTICS_WRITING_APP                  : mkvmerge v8.3.0 ('Over the Horizon') 64bit
_STATISTICS_WRITING_DATE_UTC            : 2016-09-25 06:19:39
_STATISTICS_TAGS                        : BPS DURATION NUMBER_OF_FRAMES NUMBER_OF_BYTES

Video
ID                                      : 2
Format                                  : AVC
Format/Info                              : Advanced Video Codec
Format profile                          : [email protected]
Format settings, CABAC                  : Yes
Format settings, ReFrames                : 4 frames
Codec ID                                : V_MPEG4/ISO/AVC
Duration                                : 42mn 36s
Bit rate mode                            : Variable
Bit rate                                : 13.9 Mbps
Maximum bit rate                        : 15.0 Mbps
Width                                    : 1 920 pixels
Height                                  : 1 080 pixels
Display aspect ratio                    : 16:9
Frame rate                              : 23.976 fps
Color space                              : YUV
Chroma subsampling                      : 4:2:0
Bit depth                                : 8 bits
Scan type                                : Progressive
Bits/(Pixel*Frame)                      : 0.280
Stream size                              : 4.14 GiB (94%)
Writing library                          : x264 core 148 r2623 d5b2374
Encoding settings                        : cabac=1 / ref=4 / deblock=1:-1:-1 / analyse=0x3:0x133 / me=umh / subme=9 / psy=1 / psy_rd=1.00:0.15 / mixed_ref=1 / me_range=24 / chroma_me=1 / trellis=2 / 8x8dct=1 / cqm=0 / deadzone=21,11 / fast_pskip=1 / chroma_qp_offset=-3 / threads=34 / lookahead_threads=5 / sliced_threads=0 / nr=150 / decimate=1 / interlaced=0 / bluray_compat=0 / constrained_intra=0 / bframes=8 / b_pyramid=2 / b_adapt=2 / b_bias=0 / direct=3 / weightb=1 / open_gop=0 / weightp=2 / keyint=120 / keyint_min=61 / scenecut=0 / intra_refresh=0 / rc_lookahead=120 / rc=crf / mbtree=1 / crf=18.0 / qcomp=0.60 / qpmin=0 / qpmax=69 / qpstep=4 / vbv_maxrate=15000 / vbv_bufsize=31250 / crf_max=0.0 / nal_hrd=vbr / filler=0 / ip_ratio=1.40 / aq=3:1.00
Default                                  : Yes
Forced                                  : No
Color primaries                          : BT.709-5, BT.1361, IEC 61966-2-4, SMPTE RP177
Transfer characteristics                : BT.709-5, BT.1361
Matrix coefficients                      : BT.709-5, BT.1361, IEC 61966-2-4 709, SMPTE RP177

Audio
ID                                      : 1
Format                                  : E-AC-3
Format/Info                              : Audio Coding 3
Format settings, Endianness              : Big
Codec ID                                : A_EAC3
Duration                                : 42mn 36s
Bit rate mode                            : Constant
Bit rate                                : 640 Kbps
Channel(s)                              : 6 channels
Channel positions                        : Front: L C R, Side: L R, LFE
Sampling rate                            : 48.0 KHz
Compression mode                        : Lossy
Stream size                              : 195 MiB (4%)
Language                                : English
Default                                  : Yes
Forced                                  : No

[Image: OEZq1p.jpg]

[Image: iVEyEN.jpg]

[Image: tdown.png]

For Only Vip Members

Army Wives (2007) S01-S07 AMZN WEBDL 1080p DDP 5.1 H264-TrollHD VIP
Reply


Possibly Related Threads…
Thread Author Replies Views Last Post
  The Big C (2010-2013) S01-S04 AMZN WEBDL 1080p DDP 5.1 H264-AJP69 AbrA 0 3 Yesterday, 09:23 AM
Last Post: AbrA
  The 100 (2014-2020) S01-S05 NF WEBDL 1080p EN-TR DDP 5.1 H264-TURG AbrA 0 6 10-13-2021, 12:56 PM
Last Post: AbrA
  Mare of Easttown (2021) S01 AMZN WEBDL 1080p DDP 5.1 H264-SaiTama AbrA 0 7 10-12-2021, 08:48 PM
Last Post: AbrA
  Dear Mama (2020) S01 TVP WEBDL 1080p NL-TR DD 2.0 H264-TURG AbrA 0 5 10-08-2021, 05:18 PM
Last Post: AbrA
  Muhammad Ali (2021) AMZN WEBDL 1080p DDP 5.1 H264 AbrA 0 7 10-08-2021, 04:03 PM
Last Post: AbrA

Forum Jump:


Users browsing this thread: 1 Guest(s)

Powered By MyBB
RSS RSS Syndication
Updated By iAndrew | 2021