Thread Rating:
  • 0 Vote(s) - 0 Average
  • 1
  • 2
  • 3
  • 4
  • 5

[-]
Tags
fisher bluray 2002 antwone avc 1080p hd ma 1 remux dts 5

  Antwone Fisher (2002) Bluray Remux 1080p AVC DTs-HD MA 5.1
#1
Antwone Fisher (2002) Bluray Remux 1080p AVC DTs-HD MA 5.1

[Image: tt0168786.jpg]

[Image: imdb.png]
https://www.imdb.com/title/tt0168786/

[Image: info.png]
Antwone Fisher 2002 EN.mkv
Format                      : Matroska
Format version              : Version 4 / Version 2
File size                   : 31.0 GiB
Duration                    : 2 h 0 min
Overall bit rate mode       : Variable
Overall bit rate            : 36.9 Mb/s
Movie name                  : Antwone Fisher
Encoded date                : UTC 2017-12-26 18:40:55
Writing application         : mkvmerge v19.0.0 ('Brave Captain') 64-bit
Writing library             : libebml v1.3.5 + libmatroska v1.4.8

Video
ID                          : 1
Format                      : AVC
Format/Info                 : Advanced Video Codec
Format profile              : [email protected]
Format settings             : CABAC / 4 Ref Frames
Format settings, CABAC      : Yes
Format settings, ReFrames   : 4 frames
Codec ID                    : V_MPEG4/ISO/AVC
Duration                    : 2 h 0 min
Bit rate mode               : Variable
Bit rate                    : 33.0 Mb/s
Maximum bit rate            : 36.0 Mb/s
Width                       : 1 920 pixels
Height                      : 1 080 pixels
Display aspect ratio        : 16:9
Frame rate mode             : Constant
Frame rate                  : 23.976 (24000/1001) FPS
Color space                 : YUV
Chroma subsampling          : 4:2:0
Bit depth                   : 8 bits
Scan type                   : Progressive
Bits/(Pixel*Frame)          : 0.664
Stream size                 : 27.7 GiB (89%)
Title                       : Antwone Fisher
Language                    : English
Default                     : Yes
Forced                      : No
Color range                 : Limited
Color primaries             : BT.709
Transfer characteristics    : BT.709
Matrix coefficients         : BT.709

Audio
ID                          : 2
Format                      : DTS
Format/Info                 : Digital Theater Systems
Format profile              : MA / Core
Codec ID                    : A_DTS
Duration                    : 2 h 0 min
Bit rate mode               : Variable / Constant
Bit rate                    : 3 840 kb/s / 1 509 kb/s
Channel(s)                  : 6 channels
Channel positions           : Front: L C R, Side: L R, LFE
Sampling rate               : 48.0 kHz
Frame rate                  : 93.750 FPS (512 SPF)
Bit depth                   : 24 bits
Compression mode            : Lossless / Lossy
Stream size                 : 3.24 GiB (10%)
Title                       : English
Language                    : English
Default                     : Yes
Forced                      : No

Text #1
ID                          : 3
Format                      : PGS
Muxing mode                 : zlib
Codec ID                    : S_HDMV/PGS
Codec ID/Info               : Picture based subtitle format used on BDs/HD-DVDs
Duration                    : 1 h 53 min
Bit rate                    : 63.9 kb/s
Count of elements           : 3190
Stream size                 : 51.6 MiB (0%)
Title                       : English SDH
Language                    : English
Default                     : No
Forced                      : No

Text #2
ID                          : 4
Format                      : PGS
Muxing mode                 : zlib
Codec ID                    : S_HDMV/PGS
Codec ID/Info               : Picture based subtitle format used on BDs/HD-DVDs
Duration                    : 1 h 53 min
Bit rate                    : 28.0 kb/s
Count of elements           : 2376
Stream size                 : 22.7 MiB (0%)
Title                       : Turkish
Language                    : Turkish
Default                     : Yes
Forced                      : No

[Image: 47788606392_29212db122_b.jpg]

[Image: 32896811337_5a9055e03f_b.jpg]

[Image: tdown.png]

For Only Vip Members

Antwone Fisher (2002) Bluray Remux 1080p AVC DTs-HD MA 5.1 VIP
Reply


Possibly Related Threads…
Thread Author Replies Views Last Post
  Ali G Indahouse (2002) Bluray REMUX 1080p EN-TR AVC DTS-HD MA 5.1-FGT AbrA 0 490 07-05-2020, 04:49 PM
Last Post: AbrA
  The Ring 1-2-3 (2002-2017) Bluray Remux 1080p AVC DTS 5.1 admin 1 964 03-24-2020, 04:03 AM
Last Post: Batiburrillo
  Undercover Brother (2002) Bluray Remux 1080p AVC DTS-HD MA 5.1 admin 0 883 08-24-2019, 12:44 PM
Last Post: admin
  Naked Weapon (2002) Bluray Remux 1080p AVC TrueHD 7.1 admin 0 727 08-23-2019, 09:21 AM
Last Post: admin
  28 Days Later (2002) Bluray Remux 1080p TR EN AVC DTS-HD MA 5.1 admin 0 845 08-18-2019, 05:38 PM
Last Post: admin

Forum Jump:


Users browsing this thread: 1 Guest(s)

Powered By MyBB
Theme By Audentio Design
Updated By iAndrew | 2018