Thread Rating:
  • 0 Vote(s) - 0 Average
  • 1
  • 2
  • 3
  • 4
  • 5

[-]
Tags
bluray avc 1979 1080p justice all hd ma and 1 remux for dts 5

  And Justice For All (1979) Bluray Remux 1080p AVC DTS-HD MA 5.1
#1
And Justice For All (1979) Bluray Remux 1080p AVC DTS-HD MA 5.1

[Image: tt0078718.jpg]

[Image: imdb.png]
https://www.imdb.com/title/tt0078718/

[Image: info.png]
And Justice For All 1979 EN.mkv
Format                      : Matroska
Format version              : Version 4 / Version 2
File size                   : 19.2 GiB
Duration                    : 1 h 59 min
Overall bit rate mode       : Variable
Overall bit rate            : 23.1 Mb/s
Movie name                  : ...and justice for all.
Encoded date                : UTC 2017-07-08 21:54:41
Writing application         : mkvmerge v13.0.0 ('The Juggler') 64bit
Writing library             : libebml v1.3.4 + libmatroska v1.4.5

Video
ID                          : 1
Format                      : AVC
Format/Info                 : Advanced Video Codec
Format profile              : [email protected]
Format settings, CABAC      : Yes
Format settings, ReFrames   : 2 frames
Codec ID                    : V_MPEG4/ISO/AVC
Duration                    : 1 h 59 min
Bit rate mode               : Variable
Bit rate                    : 21.0 Mb/s
Width                       : 1 920 pixels
Height                      : 1 080 pixels
Display aspect ratio        : 16:9
Frame rate mode             : Constant
Frame rate                  : 23.976 (23976/1000) FPS
Original frame rate         : 23.976 (24000/1001) FPS
Color space                 : YUV
Chroma subsampling          : 4:2:0
Bit depth                   : 8 bits
Scan type                   : Progressive
Bits/(Pixel*Frame)          : 0.422
Stream size                 : 17.4 GiB (91%)
Title                       : ...and justice for all.
Language                    : English
Default                     : Yes
Forced                      : No

Audio
ID                          : 2
Format                      : DTS
Format/Info                 : Digital Theater Systems
Format profile              : MA / Core
Mode                        : 16
Format settings, Endianness : Big
Codec ID                    : A_DTS
Duration                    : 1 h 59 min
Bit rate mode               : Variable / Constant
Bit rate                    : 2 121 kb/s / 1 509 kb/s
Channel(s)                  : 6 channels
Channel positions           : Front: L C R, Side: L R, LFE
Sampling rate               : 48.0 kHz
Frame rate                  : 93.750 FPS (512 spf)
Bit depth                   : 16 bits
Compression mode            : Lossless / Lossy
Stream size                 : 1.76 GiB (9%)
Title                       : English
Language                    : English
Default                     : Yes
Forced                      : No

Text #1
ID                          : 3
Format                      : PGS
Muxing mode                 : zlib
Codec ID                    : S_HDMV/PGS
Codec ID/Info               : Picture based subtitle format used on BDs/HD-DVDs
Duration                    : 1 h 56 min
Bit rate                    : 37.5 kb/s
Count of elements           : 3826
Stream size                 : 31.2 MiB (0%)
Title                       : English
Language                    : English
Default                     : No
Forced                      : No

Text #2
ID                          : 4
Format                      : PGS
Muxing mode                 : zlib
Codec ID                    : S_HDMV/PGS
Codec ID/Info               : Picture based subtitle format used on BDs/HD-DVDs
Duration                    : 1 h 55 min
Bit rate                    : 29.5 kb/s
Count of elements           : 2650
Stream size                 : 24.4 MiB (0%)
Title                       : Turkish
Language                    : Turkish
Default                     : Yes
Forced                      : No

[Image: vlcsnap-error397-jpg-ca9c0ba225b8384572b...9e9c1c.jpg]

[Image: vlcsnap-error581-jpg-f6a8aaf884a96234222...18e3c0.jpg]

[Image: tdown.png]

For Only Vip Members

And Justice For All (1979) Bluray Remux 1080p AVC DTS-HD MA 5.1 VIP
Reply


Possibly Related Threads…
Thread Author Replies Views Last Post
  California Dreaming 1979 1080p Blu-ray Remux AVC FLAC 2.0 - KRaLiMaRKo KAiJu 0 64 10-25-2020, 09:28 PM
Last Post: KAiJu
  Seeking Justice (2011) Bluray REMUX 1080p AVC DTS-HD MA 5.1-HUSe AbrA 0 464 06-06-2020, 09:55 AM
Last Post: AbrA
  When a Stranger Calls (1979) Bluray Remux 1080p AVC DTS-HD MA 2.0 admin 0 815 08-23-2019, 04:06 PM
Last Post: admin
  Hair (1979) Bluray Remux 1080p TR EN AVC DTS-HD MA 5.1 admin 0 846 07-20-2019, 06:01 PM
Last Post: admin
  Apocalypse Now (1979) Bluray Remux 1080p TR EN AVC DTS-HD MA 5.1 admin 0 788 07-17-2019, 01:57 PM
Last Post: admin

Forum Jump:


Users browsing this thread: 1 Guest(s)

Powered By MyBB
Theme By Audentio Design
Updated By iAndrew | 2018