Thread Rating:
  • 0 Vote(s) - 0 Average
  • 1
  • 2
  • 3
  • 4
  • 5

[-]
Tags
an bluray warriors 1080p the hd ma and 1 vc remux ch dts 5 tr 2008 empress

 
  An Empress and the Warriors (2008) Bluray Remux 1080p TR-CH VC-1 DTS-HD MA 5.1
#1
An Empress and the Warriors (2008) Bluray Remux 1080p TR-CH VC-1 DTS-HD MA 5.1

[Image: tt1186803.jpg]

[Image: imdb.png]
https://www.imdb.com/title/tt1186803/

[Image: info.png]
An Empress and the Warriors aka Jiang Shan Mei Ren 2008 TR CN.mkv
Format                      : Matroska
Format version              : Version 4 / Version 2
File size                   : 16.3 GiB
Duration                    : 1 h 34 min
Overall bit rate            : 24.6 Mb/s
Movie name                  : An Empress and the Warriors aka Jiang Shan Mei Ren
Encoded date                : UTC 2017-10-16 06:01:52
Writing application         : mkvmerge v17.0.0 ('Be Ur Friend') 64-bit
Writing library             : libebml v1.3.5 + libmatroska v1.4.8

Video
ID                          : 1
Format                      : VC-1
Format profile              : [email protected]
Codec ID                    : V_MS/VFW/FOURCC / WVC1
Codec ID/Hint               : Microsoft
Duration                    : 1 h 34 min
Bit rate                    : 16.0 Mb/s
Width                       : 1 920 pixels
Height                      : 1 080 pixels
Display aspect ratio        : 16:9
Frame rate mode             : Constant
Frame rate                  : 23.976 (24000/1001) FPS
Color space                 : YUV
Chroma subsampling          : 4:2:0
Bit depth                   : 8 bits
Scan type                   : Progressive
Compression mode            : Lossy
Bits/(Pixel*Frame)          : 0.323
Stream size                 : 10.6 GiB (65%)
Title                       : An Empress and the Warriors aka Jiang Shan Mei Ren
Language                    : Chinese
Default                     : Yes
Forced                      : No

Audio #1
ID                          : 2
Format                      : DTS
Format/Info                 : Digital Theater Systems
Format profile              : MA / ES Matrix / Core
Mode                        : 16
Format settings, Endianness : Big
Codec ID                    : A_DTS
Duration                    : 1 h 34 min
Bit rate mode               : Variable / Constant / Constant
Bit rate                    : 5 504 kb/s / 1 509 kb/s / 1 509 kb/s
Channel(s)                  : 8 channels / 7 channels / 6 channels
Channel positions           : Front: L C R, Side: L R, Back: L R, LFE / Front: L C R, Side: L R, Back: C, LFE / Front: L C R, Side: L R, LFE
Sampling rate               : 48.0 kHz
Frame rate                  : 93.750 FPS (512 spf)
Bit depth                   : 24 bits
Compression mode            : Lossless / Lossy / Lossy
Stream size                 : 3.64 GiB (22%)
Title                       : Turkish
Language                    : Turkish
Default                     : No
Forced                      : No

Audio #2
ID                          : 3
Format                      : DTS
Format/Info                 : Digital Theater Systems
Format profile              : HRA / Core
Mode                        : 16
Format settings, Endianness : Big
Codec ID                    : A_DTS
Duration                    : 1 h 34 min
Bit rate mode               : Constant
Bit rate                    : 3 018 kb/s / 1 509 kb/s
Channel(s)                  : 6 channels
Channel positions           : Front: L C R, Side: L R, LFE
Sampling rate               : 48.0 kHz
Frame rate                  : 93.750 FPS (512 spf)
Bit depth                   : 24 bits
Compression mode            : Lossy
Stream size                 : 2.00 GiB (12%)
Title                       : Chinese
Language                    : Chinese
Default                     : Yes
Forced                      : No

Text
ID                          : 4
Format                      : PGS
Muxing mode                 : zlib
Codec ID                    : S_HDMV/PGS
Codec ID/Info               : Picture based subtitle format used on BDs/HD-DVDs
Duration                    : 1 h 30 min
Bit rate                    : 32.3 kb/s
Count of elements           : 1463
Stream size                 : 20.9 MiB (0%)
Title                       : Turkish
Language                    : Turkish
Default                     : Yes
Forced                      : No

[Image: 40867926593_a9ca4da2c3_b.jpg]

[Image: 47045024764_0ecd58eec0_b.jpg]

[Image: tdown.png]

For Only Vip Members

An Empress and the Warriors (2008) Bluray Remux 1080p TR-CH VC-1 DTS-HD MA 5.1 VIP
Reply


Possibly Related Threads…
Thread Author Replies Views Last Post
  A Bunch of Amateurs 2008 1080i Blu-ray Remux AVC DTS-HD MA 5.1 - KRaLiMaRKo KAiJu 0 68 03-05-2022, 02:04 PM
Last Post: KAiJu
  Warriors Two 1978 1080p Blu-ray Remux AVC LPCM 1 0-HDT KAiJu 0 54 02-17-2022, 06:28 AM
Last Post: KAiJu
  Vinyan 2008 1080p Remux AVC DTS-HD MA 5.1-playBD KAiJu 0 67 02-02-2022, 06:25 AM
Last Post: KAiJu
  Seven Pounds 2008 1080p Blu-ray Remux AVC TrueHD 5.1 - KRaLiMaRKo KAiJu 0 77 11-06-2021, 09:35 PM
Last Post: KAiJu
  Pistol Whipped (2008) Bluray REMUX 1080p AVC DTS-HD MA 5.1-HUS AbrA 0 111 10-20-2021, 10:35 PM
Last Post: AbrA

Forum Jump:


Users browsing this thread: 1 Guest(s)

Powered By MyBB
RSS RSS Syndication
Updated By iAndrew | 2022