Thread Rating:
  • 0 Vote(s) - 0 Average
  • 1
  • 2
  • 3
  • 4
  • 5

[-]
Tags
bluray made avc american 1080p 2017 7 hd ma 1 remux dts

 
  American Made (2017) Bluray Remux 1080p AVC DTS-HD MA 7.1
#1
American Made (2017) Bluray Remux 1080p AVC DTS-HD MA 7.1

[Image: tt3532216.jpg]

[Image: imdb.png]
https://www.imdb.com/title/tt3532216/

[Image: info.png]
American Made 2017 EN.mkv
Format                      : Matroska
Format version              : Version 4 / Version 2
File size                   : 24.1 GiB
Duration                    : 1 h 54 min
Overall bit rate mode       : Variable
Overall bit rate            : 30.0 Mb/s
Movie name                  : American Made
Encoded date                : UTC 2017-12-12 19:02:25
Writing application         : mkvmerge v18.0.0 ('Apricity') 64-bit
Writing library             : libebml v1.3.5 + libmatroska v1.4.8

Video
ID                          : 1
Format                      : AVC
Format/Info                 : Advanced Video Codec
Format profile              : [email protected]
Format settings, CABAC      : Yes
Format settings, ReFrames   : 4 frames
Format settings, GOP        : M=3, N=12
Codec ID                    : V_MPEG4/ISO/AVC
Duration                    : 1 h 54 min
Bit rate mode               : Variable
Bit rate                    : 23.2 Mb/s
Maximum bit rate            : 27.5 Mb/s
Width                       : 1 920 pixels
Height                      : 1 080 pixels
Display aspect ratio        : 16:9
Frame rate mode             : Constant
Frame rate                  : 23.976 (24000/1001) FPS
Color space                 : YUV
Chroma subsampling          : 4:2:0
Bit depth                   : 8 bits
Scan type                   : Progressive
Bits/(Pixel*Frame)          : 0.466
Stream size                 : 18.6 GiB (77%)
Title                       : American Made
Language                    : English
Default                     : Yes
Forced                      : No

Audio
ID                          : 2
Format                      : DTS
Format/Info                 : Digital Theater Systems
Format profile              : X / MA / Core
Mode                        : 16
Format settings, Endianness : Big
Codec ID                    : A_DTS
Duration                    : 1 h 54 min
Bit rate mode               : Variable / Variable / Constant
Bit rate                    : 6 857 kb/s / 6 857 kb/s / 1 509 kb/s
Channel(s)                  : Object Based / 8 channels / 6 channels
Channel positions           : Object Based / Front: L C R, Side: L R, Back: L R, LFE / Front: L C R, Side: L R, LFE
Sampling rate               :  / 48.0 kHz / 48.0 kHz
Frame rate                  : 93.750 FPS (512 spf)
Bit depth                   :  / 24 bits / 24 bits
Compression mode            :  / Lossless / Lossy
Stream size                 : 5.51 GiB (23%)
Title                       : English
Language                    : English
Default                     : Yes
Forced                      : No

Text #1
ID                          : 3
Format                      : PGS
Muxing mode                 : zlib
Codec ID                    : S_HDMV/PGS
Codec ID/Info               : Picture based subtitle format used on BDs/HD-DVDs
Duration                    : 1 h 45 min
Bit rate                    : 46.0 kb/s
Count of elements           : 3532
Stream size                 : 34.8 MiB (0%)
Title                       : English SDH
Language                    : English
Default                     : No
Forced                      : No

Text #2
ID                          : 4
Format                      : PGS
Muxing mode                 : zlib
Codec ID                    : S_HDMV/PGS
Codec ID/Info               : Picture based subtitle format used on BDs/HD-DVDs
Duration                    : 1 h 45 min
Bit rate                    : 27.6 kb/s
Count of elements           : 2188
Stream size                 : 21.0 MiB (0%)
Title                       : Turkish
Language                    : Turkish
Default                     : Yes
Forced                      : No

[Image: 32896718577_6f10b964cb_b.jpg]

[Image: 33963299738_a0f6232f6c_b.jpg]

[Image: tdown.png]

For Only Vip Members

American Made (2017) Bluray Remux 1080p AVC DTS-HD MA 7.1 VIP
Reply


Possibly Related Threads…
Thread Author Replies Views Last Post
  American Insurrection 2021 1080p Blu-ray Remux AVC DTS-HD MA 5.1-HDT KAiJu 0 18 05-09-2022, 07:01 AM
Last Post: KAiJu
  American Honey (2016) Bluray REMUX 1080p AVC DTS-HD MA 5.1-HUS AbrA 0 40 04-16-2022, 06:45 PM
Last Post: AbrA
  Ted Bundy American Boogeyman 2021 1080p Blu-ray Remux AVC DTS-HD MA 5.1-HDT KAiJu 0 57 03-20-2022, 01:11 PM
Last Post: KAiJu
  American Siege 2021 1080p Blu-ray Remux AVC DTS-HD MA 5.1-HDT KAiJu 0 60 03-10-2022, 09:22 AM
Last Post: KAiJu
  American Underdog 2021 1080p Blu-ray Remux AVC TrueHD 7 1-HDT KAiJu 0 61 02-20-2022, 07:35 AM
Last Post: KAiJu

Forum Jump:


Users browsing this thread: 1 Guest(s)

Powered By MyBB
RSS RSS Syndication
Updated By iAndrew | 2022