Thread Rating:
  • 0 Vote(s) - 0 Average
  • 1
  • 2
  • 3
  • 4
  • 5

[-]
Tags
it dd bluray amarcord avc 1080p en 1 remux 1973

  Amarcord (1973) Bluray Remux 1080p IT-EN AVC DD 1.0
#1
Amarcord (1973) Bluray Remux 1080p IT-EN AVC DD 1.0

[Image: tt0071129.jpg]

[Image: imdb.png]
https://www.imdb.com/title/tt0071129/

[Image: info.png]
Amarcord 1973 IT EN.mkv
Format                      : Matroska
Format version              : Version 4 / Version 2
File size                   : 21.3 GiB
Duration                    : 2 h 3 min
Overall bit rate mode       : Variable
Overall bit rate            : 24.7 Mb/s
Movie name                  : Amarcord
Encoded date                : UTC 2016-10-02 11:40:10
Writing application         : mkvmerge v8.3.0 ('Over the Horizon') 64bit
Writing library             : libebml v1.3.1 + libmatroska v1.4.2

Video
ID                          : 1
Format                      : AVC
Format/Info                 : Advanced Video Codec
Format profile              : [email protected]
Format settings, CABAC      : Yes
Format settings, ReFrames   : 4 frames
Codec ID                    : V_MPEG4/ISO/AVC
Duration                    : 2 h 3 min
Bit rate mode               : Variable
Bit rate                    : 24.0 Mb/s
Maximum bit rate            : 37.0 Mb/s
Width                       : 1 920 pixels
Height                      : 1 080 pixels
Display aspect ratio        : 16:9
Frame rate mode             : Constant
Frame rate                  : 23.976 (24000/1001) FPS
Color space                 : YUV
Chroma subsampling          : 4:2:0
Bit depth                   : 8 bits
Scan type                   : Progressive
Bits/(Pixel*Frame)          : 0.482
Stream size                 : 20.8 GiB (97%)
Title                       : Amarcord
Language                    : Italian
Default                     : Yes
Forced                      : No
Color range                 : Limited
Color primaries             : BT.709
Transfer characteristics    : BT.709
Matrix coefficients         : BT.709

Audio #1
ID                          : 2
Format                      : AC-3
Format/Info                 : Audio Coding 3
Format settings, Endianness : Big
Codec ID                    : A_AC3
Duration                    : 2 h 3 min
Bit rate mode               : Constant
Bit rate                    : 448 kb/s
Channel(s)                  : 1 channel
Channel positions           : Front: C
Sampling rate               : 48.0 kHz
Frame rate                  : 31.250 FPS (1536 spf)
Bit depth                   : 16 bits
Compression mode            : Lossy
Stream size                 : 397 MiB (2%)
Title                       : Italian
Language                    : Italian
Service kind                : Complete Main
Default                     : Yes
Forced                      : No

Audio #2
ID                          : 3
Format                      : AC-3
Format/Info                 : Audio Coding 3
Format settings, Endianness : Big
Codec ID                    : A_AC3
Duration                    : 2 h 3 min
Bit rate mode               : Constant
Bit rate                    : 192 kb/s
Channel(s)                  : 1 channel
Channel positions           : Front: C
Sampling rate               : 48.0 kHz
Frame rate                  : 31.250 FPS (1536 spf)
Bit depth                   : 16 bits
Compression mode            : Lossy
Stream size                 : 170 MiB (1%)
Title                       : English
Language                    : English
Service kind                : Complete Main
Default                     : No
Forced                      : No

Text #1
ID                          : 4
Format                      : PGS
Muxing mode                 : zlib
Codec ID                    : S_HDMV/PGS
Codec ID/Info               : Picture based subtitle format used on BDs/HD-DVDs
Duration                    : 2 h 1 min
Bit rate                    : 9 572 b/s
Count of elements           : 2478
Stream size                 : 8.30 MiB (0%)
Title                       : English
Language                    : English
Default                     : No
Forced                      : No

Text #2
ID                          : 5
Format                      : PGS
Muxing mode                 : zlib
Codec ID                    : S_HDMV/PGS
Codec ID/Info               : Picture based subtitle format used on BDs/HD-DVDs
Duration                    : 2 h 1 min
Bit rate                    : 10.8 kb/s
Count of elements           : 2186
Stream size                 : 9.35 MiB (0%)
Title                       : Turkish
Language                    : Turkish
Default                     : Yes
Forced                      : No

[Image: vlcsnap-error319-jpg-ca98896e9e1a6c63174...10d716.jpg]

[Image: vlcsnap-error628-jpg-4e347c24653a6bc0839...c2e5c3.jpg]

[Image: tdown.png]

For Only Vip Members

Amarcord (1973) Bluray Remux 1080p IT-EN AVC DD 1.0 VIP
Reply


Possibly Related Threads…
Thread Author Replies Views Last Post
  Serpico (1973) Bluray Remux 1080p AVC DTS-HD MA 5.1 admin 0 680 08-24-2019, 09:13 AM
Last Post: admin
  The Demons (1973) Bluray Remux 1080p AVC DTS-HD MA 2.0 admin 0 742 08-21-2019, 07:35 PM
Last Post: admin
  Shaft 1-2-3 (1971-1973) Bluray Remux 1080p AVC DTS-HD MA 1.0 admin 0 748 08-20-2019, 08:02 PM
Last Post: admin
  Jesus Christ Superstar (1973) Bluray Remux 1080p VC-1 DTS 2.0 admin 0 841 07-16-2019, 02:53 PM
Last Post: admin
  A Virgin Among the Living Dead (1973) Bluray Remux 1080p AVC DTS-HD MA 1.0 admin 0 973 07-06-2019, 04:48 PM
Last Post: admin

Forum Jump:


Users browsing this thread: 1 Guest(s)

Powered By MyBB
Theme By Audentio Design
Updated By iAndrew | 2018