Thread Rating:
  • 0 Vote(s) - 0 Average
  • 1
  • 2
  • 3
  • 4
  • 5

[-]
Tags
bluray chipmunks quadrilogy 2015 810p x264 the prodji alvin 2007 and dts

  Alvin And The Chipmunks (2007-2015) Quadrilogy BluRay 810p DTS x264-PRoDJi
#1
Alvin And The Chipmunks (2007-2015) Quadrilogy BluRay 810p DTS x264-PRoDJi

[Image: alvinnn.jpg]

[Image: imdb.png]
https://www.imdb.com/title/tt1615918/
https://www.imdb.com/title/tt0952640/
https://www.imdb.com/title/tt1231580/
https://www.imdb.com/title/tt2974918/

[Image: info.png]
Format : Matroska
Format version : Version 4
File size : 4.37 GiB
Duration : 1 h 31 min
Overall bit rate : 6 850 kb/s
Encoded date : UTC 2016-04-02 10:11:44
Writing application : mkvmerge v7.8.0 ('River Man') 32bit built on Mar 27 2015 16:18:02
Writing library : libebml v1.3.1 + libmatroska v1.4.2

Video
ID : 1
Format : AVC
Format/Info : Advanced Video Codec
Format profile : [email protected]
Format settings : CABAC / 6 Ref Frames
Format settings, CABAC : Yes
Format settings, RefFrames : 6 frames
Codec ID : V_MPEG4/ISO/AVC
Duration : 1 h 31 min
Bit rate : 4 954 kb/s
Width : 1 440 pixels
Height : 776 pixels
Display aspect ratio : 1.85:1
Frame rate mode : Constant
Frame rate : 23.976 (24000/1001) FPS
Color space : YUV
Chroma subsampling : 4:2:0
Bit depth : 8 bits
Scan type : Progressive
Bits/(Pixel*Frame) : 0.185
Stream size : 3.07 GiB (70%)
Title : @4954Kbps High Profiles @L4.1
Writing library : x264 core 148 r2638 7599210
Encoding settings : cabac=1 / ref=7 / deblock=1:-1:-1 / analyse=0x3:0x113 / me=umh / subme=7 / psy=1 / psy_rd=1.00:0.00 / mixed_ref=1 / me_range=24 / chroma_me=1 / trellis=2 / 8x8dct=1 / cqm=2 / deadzone=21,11 / fast_pskip=1 / chroma_qp_offset=-5 / threads=6 / lookahead_threads=1 / sliced_threads=0 / nr=0 / decimate=0 / interlaced=0 / bluray_compat=0 / constrained_intra=0 / bframes=5 / b_pyramid=1 / b_adapt=2 / b_bias=2 / direct=3 / weightb=1 / open_gop=0 / weightp=2 / keyint=230 / keyint_min=22 / scenecut=40 / intra_refresh=0 / rc_lookahead=45 / rc=2pass / mbtree=1 / bitrate=4954 / ratetol=1.0 / qcomp=0.60 / qpmin=10 / qpmax=41 / qpstep=4 / cplxblur=20.0 / qblur=0.5 / ip_ratio=1.30 / aq=1:1.00
Language : English
Default : Yes
Forced : No

Audio #1
ID : 2
Format : DTS
Format/Info : Digital Theater Systems
Codec ID : A_DTS
Duration : 1 h 31 min
Bit rate mode : Constant
Bit rate : 1 509 kb/s
Channel(s) : 6 channels
Channel layout : C L R Ls Rs LFE
Sampling rate : 48.0 kHz
Frame rate : 93.750 FPS (512 SPF)
Bit depth : 24 bits
Compression mode : Lossy
Stream size : 985 MiB (22%)
Title : [email protected] 6 chnls
Language : English
Default : Yes
Forced : No

Audio #2
ID : 3
Format : AC-3
Format/Info : Audio Coding 3
Commercial name : Dolby Digital
Codec ID : A_AC3
Duration : 1 h 31 min
Bit rate mode : Constant
Bit rate : 384 kb/s
Channel(s) : 6 channels
Channel layout : L R C LFE Ls Rs
Sampling rate : 48.0 kHz
Frame rate : 31.250 FPS (1536 SPF)
Bit depth : 16 bits
Compression mode : Lossy
Delay relative to video : 2 s 900 ms
Stream size : 251 MiB (6%)
Title : [email protected] 6 chnls
Language : Turkish
Service kind : Complete Main
Default : No
Forced : No

Text #1
ID : 4
Format : UTF-8
Codec ID : S_TEXT/UTF8
Codec ID/Info : UTF-8 Plain Text
Language : English
Default : Yes
Forced : No

Text #2
ID : 5
Format : UTF-8
Codec ID : S_TEXT/UTF8
Codec ID/Info : UTF-8 Plain Text
Language : Turkish
Default : No
Forced : No

Menu
00:00:00.000 : en:Main Titles/Nuts!
00:00:39.000 : en:Late Again
00:03:01.000 : en:Demo Disaster
00:05:07.000 : en:The Muffin Basket
00:08:43.000 : en:So Much Food
00:09:44.000 : en:Get Out
00:10:44.000 : en:You Can Sing, Too!
00:14:08.000 : en:Christmas Is Here
00:16:28.000 : en:Stage Fright
00:20:49.000 : en:Dave's Really Bad Day
00:25:15.000 : en:This Is Not a Date
00:27:37.000 : en:Goodbye
00:30:18.000 : en:Alvin's Great Idea
00:33:55.000 : en:Climbing the Charts
00:37:47.000 : en:Christmas
00:40:00.000 : en:Premiere Party
00:43:25.000 : en:Major Rock Stars
00:44:47.000 : en:No Rules
00:50:37.000 : en:Cross-Country Tour
00:57:44.000 : en:Coffee Buzz
01:00:26.000 : en:Where's Dave
01:01:18.000 : en:Nightmare
01:04:34.000 : en:Ian's Solution
01:06:03.000 : en:Dave Arrives
01:08:13.000 : en:Chimpmunk Case
01:10:08.000 : en:Family
01:11:33.000 : en:The "A" Word
01:13:58.000 : en:End Titles

[Image: tdown.png]

For Only Vip Members
Reply


Possibly Related Threads...
Thread Author Replies Views Last Post
  Batman (1989) Bluray 1080p DUAL DD5.1 x264-fidelio admin 0 16 Yesterday, 09:28 PM
Last Post: admin
  I Spit on Your Grave Deja Vu (2019) Bluray 1080p x264-EVO admin 0 49 04-24-2019, 02:11 PM
Last Post: admin
  How to Train Your Dragon The Hidden World (2019) Bluray 1080p DUAL DD5.1 x264-CHD admin 0 51 04-24-2019, 12:35 PM
Last Post: admin
  Holmes and Watson (2018) Bluray 1080p DUAL DD5.1 x264-BdC admin 0 52 04-24-2019, 10:24 AM
Last Post: admin
  The Mule (2018) Bluray 1080p DUAL AC3 x264-BdC admin 0 75 04-23-2019, 08:27 PM
Last Post: admin

Forum Jump:


Users browsing this thread: 1 Guest(s)

Powered By MyBB
Theme By Audentio Design
Updated By iAndrew | 2018