Thread Rating:
  • 0 Vote(s) - 0 Average
  • 1
  • 2
  • 3
  • 4
  • 5

[-]
Tags
1997 bluray aliens quadrilogy x264 1979 1080p prodji dts

  Aliens Quadrilogy (1979-1997) BluRay 1080p DTS x264-PRoDJi
#1
Aliens Quadrilogy (1979-1997) BluRay 1080p DTS x264-PRoDJi

[Image: alien.jpg]

[Image: imdb.png]
https://www.imdb.com/title/tt0078748/
https://www.imdb.com/title/tt0090605/
https://www.imdb.com/title/tt0103644/
https://www.imdb.com/title/tt0118583/

[Image: info.png]
Format : Matroska
Format version : Version 4
File size : 7.65 GiB
Duration : 1 h 56 min
Overall bit rate : 9 393 kb/s
Encoded date : UTC 2014-10-09 05:54:04
Writing application : mkvmerge v7.2.0 ('On Every Street') 32bit built on Sep 13 2014 15:42:11
Writing library : libebml v1.3.0 + libmatroska v1.4.1

Video
ID : 1
Format : AVC
Format/Info : Advanced Video Codec
Format profile : [email protected]
Format settings : CABAC / 4 Ref Frames
Format settings, CABAC : Yes
Format settings, RefFrames : 4 frames
Codec ID : V_MPEG4/ISO/AVC
Duration : 1 h 56 min
Bit rate : 7 422 kb/s
Width : 1 920 pixels
Height : 816 pixels
Display aspect ratio : 2.35:1
Frame rate mode : Constant
Frame rate : 23.976 (24000/1001) FPS
Color space : YUV
Chroma subsampling : 4:2:0
Bit depth : 8 bits
Scan type : Progressive
Bits/(Pixel*Frame) : 0.198
Stream size : 6.06 GiB (79%)
Title : @7422Kbps High Profiles @L4.1
Writing library : x264 core 142 r2431 ac76440
Encoding settings : cabac=1 / ref=5 / deblock=1:-3:-3 / analyse=0x3:0x133 / me=hex / subme=8 / psy=1 / psy_rd=1.09:0.09 / mixed_ref=1 / me_range=16 / chroma_me=1 / trellis=1 / 8x8dct=1 / cqm=2 / deadzone=21,11 / fast_pskip=1 / chroma_qp_offset=-2 / threads=6 / lookahead_threads=1 / sliced_threads=0 / slices=4 / nr=100 / decimate=0 / interlaced=0 / bluray_compat=0 / constrained_intra=0 / bframes=4 / b_pyramid=1 / b_adapt=2 / b_bias=0 / direct=3 / weightb=1 / open_gop=0 / weightp=2 / keyint=240 / keyint_min=23 / scenecut=40 / intra_refresh=0 / rc_lookahead=40 / rc=2pass / mbtree=1 / bitrate=7422 / ratetol=1.6 / qcomp=0.60 / qpmin=5 / qpmax=69 / qpstep=4 / cplxblur=10.0 / qblur=0.0 / vbv_maxrate=62500 / vbv_bufsize=78125 / nal_hrd=none / filler=0 / ip_ratio=1.40 / aq=1:1.00
Language : English
Default : Yes
Forced : No

Audio #1
ID : 2
Format : DTS
Format/Info : Digital Theater Systems
Codec ID : A_DTS
Duration : 1 h 56 min
Bit rate mode : Constant
Bit rate : 1 509 kb/s
Channel(s) : 6 channels
Channel layout : C L R Ls Rs LFE
Sampling rate : 48.0 kHz
Frame rate : 93.750 FPS (512 SPF)
Bit depth : 24 bits
Compression mode : Lossy
Stream size : 1.23 GiB (16%)
Title : [email protected] 6 chnls
Language : English
Default : Yes
Forced : No

Audio #2
ID : 3
Format : AC-3
Format/Info : Audio Coding 3
Commercial name : Dolby Digital
Codec ID : A_AC3
Duration : 1 h 56 min
Bit rate mode : Constant
Bit rate : 448 kb/s
Channel(s) : 6 channels
Channel layout : L R C LFE Ls Rs
Sampling rate : 48.0 kHz
Frame rate : 31.250 FPS (1536 SPF)
Bit depth : 16 bits
Compression mode : Lossy
Stream size : 374 MiB (5%)
Title : [email protected] 6 chnls
Language : Turkish
Service kind : Complete Main
Default : No
Forced : No

Text #1
ID : 4
Format : UTF-8
Codec ID : S_TEXT/UTF8
Codec ID/Info : UTF-8 Plain Text
Duration : 1 h 46 min
Bit rate : 37 b/s
Count of elements : 883
Stream size : 29.4 KiB (0%)
Language : English
Default : Yes
Forced : No

Text #2
ID : 5
Format : UTF-8
Codec ID : S_TEXT/UTF8
Codec ID/Info : UTF-8 Plain Text
Duration : 1 h 51 min
Bit rate : 28 b/s
Count of elements : 673
Stream size : 23.0 KiB (0%)
Language : Turkish
Default : No
Forced : No

Menu
00:00:00.000 : en:Main Titles
00:04:40.701 : en:Early to Rise
00:12:45.370 : en:Rough Landing
00:20:33.003 : en:Walking Distance
00:28:06.338 : enBig Grinead a Long Time
00:31:04.005 : en:Eggs or Something
00:36:15.839 : en:A Wonderful Defense Mechanism
00:46:21.507 : en:Missing a Guest
00:50:51.507 : en:Taking Off
00:54:33.108 : en:Last Supper
00:58:00.608 : en:Seek and Destroy
01:03:27.641 : en:"Here Kitty"
01:10:55.941 : en:No Blood, No Dallas
01:20:29.277 : en:A Confrontation with Ash
01:24:04.111 : enTongueriority One
01:29:04.945 : en:Scared Stiff
01:34:44.145 : enBig Grinestruct System Activated
01:42:03.946 : en:T Minus Thirty Seconds
01:45:44.214 : en:The Last Survivors
01:53:44.548 : en:End Titles
01:56:32.249 : en:Chapter 21

[Image: tdown.png]

For Only Vip Members
Reply


Possibly Related Threads…
Thread Author Replies Views Last Post
  DC Showcase The Spectre (2010) BluRay 1080p DTS x264-PRoDJi admin 2 328 07-24-2019, 06:27 PM
Last Post: admin
  DC Universe Animaton Movie (1993-2008) Boxset Bluray 1080p TR-EN x264 DTS 5.1-PRoDJi admin 0 88 07-20-2019, 05:30 PM
Last Post: admin
  The House (1985-1992) Collection BluRay 1080p DTS x264-PRoDJi admin 3 452 05-13-2019, 02:39 PM
Last Post: Brooks
  The Commuter (2018) BluRay 1080p TR-EN DTS x264 PRoDJi admin 0 365 03-10-2019, 09:28 PM
Last Post: admin
  Tomb Raider (2018) BluRay 1080p TR-EN DTS x264-PRoDJi admin 0 316 03-10-2019, 09:22 PM
Last Post: admin

Forum Jump:


Users browsing this thread: 1 Guest(s)

Powered By MyBB
Theme By Audentio Design
Updated By iAndrew | 2018