Thread Rating:
  • 0 Vote(s) - 0 Average
  • 1
  • 2
  • 3
  • 4
  • 5

[-]
Tags
bluray avc 1080p en flux hd ma aeon 1 remux 2005 dts 5 tr

 
  AEon Flux (2005) Bluray Remux 1080p TR-EN AVC DTS-HD MA 5.1
#1
AEon Flux (2005) Bluray Remux 1080p TR-EN AVC DTS-HD MA 5.1

[Image: tt0402022.jpg]

[Image: imdb.png]
https://www.imdb.com/title/tt0402022/

[Image: info.png]
Æon Flux 2005 TR EN.mkv
Format                      : Matroska
Format version              : Version 4 / Version 2
File size                   : 22.7 GiB
Duration                    : 1 h 32 min
Overall bit rate mode       : Variable
Overall bit rate            : 35.1 Mb/s
Movie name                  : Æon Flux
Encoded date                : UTC 2015-12-09 21:29:32
Writing application         : mkvmerge v8.3.0 ('Over the Horizon') 64bit
Writing library             : libebml v1.3.1 + libmatroska v1.4.2

Video
ID                          : 1
Format                      : AVC
Format/Info                 : Advanced Video Codec
Format profile              : [email protected]
Format settings, CABAC      : Yes
Format settings, ReFrames   : 2 frames
Format settings, GOP        : M=1, N=10
Codec ID                    : V_MPEG4/ISO/AVC
Duration                    : 1 h 32 min
Bit rate mode               : Variable
Bit rate                    : 30.7 Mb/s
Width                       : 1 920 pixels
Height                      : 1 080 pixels
Display aspect ratio        : 16:9
Frame rate mode             : Constant
Frame rate                  : 23.976 (24000/1001) FPS
Color space                 : YUV
Chroma subsampling          : 4:2:0
Bit depth                   : 8 bits
Scan type                   : Progressive
Bits/(Pixel*Frame)          : 0.618
Stream size                 : 19.9 GiB (88%)
Title                       : Æon Flux
Language                    : English
Default                     : Yes
Forced                      : No

Audio #1
ID                          : 2
Format                      : DTS
Format/Info                 : Digital Theater Systems
Format profile              : MA / Core
Mode                        : 16
Format settings, Endianness : Big
Codec ID                    : A_DTS
Duration                    : 1 h 32 min
Bit rate mode               : Variable / Constant
Bit rate                    : 3 840 kb/s / 1 509 kb/s
Channel(s)                  : 6 channels
Channel positions           : Front: L C R, Side: L R, LFE
Sampling rate               : 48.0 kHz
Frame rate                  : 93.750 FPS (512 spf)
Bit depth                   : 24 bits
Compression mode            : Lossless / Lossy
Stream size                 : 2.51 GiB (11%)
Title                       : English
Language                    : English
Default                     : Yes
Forced                      : No

Audio #2
ID                          : 3
Format                      : AC-3
Format/Info                 : Audio Coding 3
Format settings, Endianness : Big
Codec ID                    : A_AC3
Duration                    : 1 h 32 min
Bit rate mode               : Constant
Bit rate                    : 448 kb/s
Channel(s)                  : 6 channels
Channel positions           : Front: L C R, Side: L R, LFE
Sampling rate               : 48.0 kHz
Frame rate                  : 31.250 FPS (1536 spf)
Bit depth                   : 16 bits
Compression mode            : Lossy
Stream size                 : 298 MiB (1%)
Title                       : Turkish
Language                    : Turkish
Service kind                : Complete Main
Default                     : No
Forced                      : No

Text #1
ID                          : 4
Format                      : PGS
Muxing mode                 : zlib
Codec ID                    : S_HDMV/PGS
Codec ID/Info               : Picture based subtitle format used on BDs/HD-DVDs
Duration                    : 1 h 23 min
Bit rate                    : 7 387 b/s
Count of elements           : 1444
Stream size                 : 4.42 MiB (0%)
Title                       : English
Language                    : English
Default                     : No
Forced                      : No

Text #2
ID                          : 5
Format                      : PGS
Muxing mode                 : zlib
Codec ID                    : S_HDMV/PGS
Codec ID/Info               : Picture based subtitle format used on BDs/HD-DVDs
Duration                    : 1 h 25 min
Bit rate                    : 15.9 kb/s
Count of elements           : 1458
Stream size                 : 9.75 MiB (0%)
Title                       : Turkish
Language                    : Turkish
Default                     : Yes
Forced                      : No

[Image: vlcsnap-error212-jpg-77496d8a49c4c41886d...f494a8.jpg]

[Image: vlcsnap-error563-jpg-14aa7f7ef296fd1d568...9730a0.jpg]

[Image: tdown.png]

For Only Vip Members

AEon Flux (2005) Bluray Remux 1080p TR-EN AVC DTS-HD MA 5.1 VIP
Reply


Possibly Related Threads…
Thread Author Replies Views Last Post
  Cursed 2005 Unrated 1080p BluRay REMUX AVC DTS-HD MA 5.1-BLURANiUM KAiJu 0 1 Yesterday, 06:29 AM
Last Post: KAiJu
  Caché 2005 1080p Blu-ray Remux AVC DTS-HD MA 5.1 - KRaLiMaRKo KAiJu 0 14 05-16-2022, 09:39 AM
Last Post: KAiJu
  Edison 2005 1080p Blu-ray Remux VC-1 DTS-HD MA 5.1-HDT KAiJu 0 26 04-19-2022, 09:59 AM
Last Post: KAiJu
  The Squid and the Whale 2005 Criterion Collection 1080p BluRay REMUX AVC DTS-HD MA 5. KAiJu 0 31 04-18-2022, 09:27 AM
Last Post: KAiJu
  The Skeleton Key 2005 1080p BluRay REMUX VC-1 DTS-HD MA 5.1-EPSiLON KAiJu 0 41 04-11-2022, 02:17 PM
Last Post: KAiJu

Forum Jump:


Users browsing this thread: 1 Guest(s)

Powered By MyBB
RSS RSS Syndication
Updated By iAndrew | 2022