Thread Rating:
  • 0 Vote(s) - 0 Average
  • 1
  • 2
  • 3
  • 4
  • 5

[-]
Tags
1970 sabata bluray adios avc 1080p hd ma 2 remux dts

  Adios Sabata (1970) Bluray Remux 1080p AVC DTS-HD MA 2.0
#1
Adios Sabata (1970) Bluray Remux 1080p AVC DTS-HD MA 2.0

[Image: tt0066745.jpg]

[Image: imdb.png]
https://www.imdb.com/title/tt0066745/

[Image: info.png]
Adios Sabata aka Indio Black, sai che ti dico Sei un gran figlio di...1970 EN.mkv
Format                      : Matroska
Format version              : Version 4 / Version 2
File size                   : 18.1 GiB
Duration                    : 1 h 45 min
Overall bit rate mode       : Variable
Overall bit rate            : 24.5 Mb/s
Movie name                  : Adios Sabata aka Indio Black, sai che ti dico Sei un gran figlio di...
Encoded date                : UTC 2017-08-21 13:29:01
Writing application         : mkvmerge v15.0.0 ('Duel with the Devil') 64-bit
Writing library             : libebml v1.3.5 + libmatroska v1.4.5

Video
ID                          : 1
Format                      : AVC
Format/Info                 : Advanced Video Codec
Format profile              : [email protected]
Format settings, CABAC      : Yes
Format settings, ReFrames   : 3 frames
Format settings, GOP        : M=3, N=12
Codec ID                    : V_MPEG4/ISO/AVC
Duration                    : 1 h 45 min
Bit rate mode               : Variable
Bit rate                    : 23.0 Mb/s
Maximum bit rate            : 32.3 Mb/s
Width                       : 1 920 pixels
Height                      : 1 080 pixels
Display aspect ratio        : 16:9
Frame rate mode             : Constant
Frame rate                  : 23.976 (24000/1001) FPS
Standard                    : NTSC
Color space                 : YUV
Chroma subsampling          : 4:2:0
Bit depth                   : 8 bits
Scan type                   : Progressive
Bits/(Pixel*Frame)          : 0.462
Stream size                 : 16.9 GiB (94%)
Title                       : Adios Sabata aka Indio Black, sai che ti dico Sei un gran figlio di...
Language                    : English
Default                     : Yes
Forced                      : No
Color range                 : Limited
Color primaries             : BT.709
Transfer characteristics    : BT.709
Matrix coefficients         : BT.709

Audio
ID                          : 2
Format                      : DTS
Format/Info                 : Digital Theater Systems
Format profile              : MA / Core
Mode                        : 16
Format settings, Endianness : Big
Codec ID                    : A_DTS
Duration                    : 1 h 45 min
Bit rate mode               : Variable / Constant
Bit rate                    : 1 536 kb/s / 1 509 kb/s
Channel(s)                  : 2 channels
Channel positions           : Front: L R
Sampling rate               : 48.0 kHz
Frame rate                  : 93.750 FPS (512 spf)
Bit depth                   : 16 bits
Compression mode            : Lossless / Lossy
Delay relative to video     : 11 s 0 ms
Stream size                 : 1.15 GiB (6%)
Title                       : English
Language                    : English
Default                     : Yes
Forced                      : No

Text
ID                          : 3
Format                      : PGS
Muxing mode                 : zlib
Codec ID                    : S_HDMV/PGS
Codec ID/Info               : Picture based subtitle format used on BDs/HD-DVDs
Duration                    : 1 h 44 min
Bit rate                    : 14.0 kb/s
Count of elements           : 1308
Stream size                 : 10.4 MiB (0%)
Title                       : Turkish
Language                    : Turkish
Default                     : Yes
Forced                      : No

[Image: 47834412291_97dfc04d99_b.jpg]

[Image: 47834414981_6edab64bc8_b.jpg]

[Image: tdown.png]

For Only Vip Members

Adios Sabata (1970) Bluray Remux 1080p AVC DTS-HD MA 2.0 VIP
Reply


Possibly Related Threads…
Thread Author Replies Views Last Post
  The Aristocats (1970) Bluray REMUX 1080p AVC DTS-HD MA 5.1-HUSe AbrA 0 268 07-31-2020, 05:18 PM
Last Post: AbrA
  MASH (1970) Bluray Remux 1080p TR EN AVC DTS-HD MA 5.1 admin 0 802 08-21-2019, 07:46 PM
Last Post: admin
  Eugenie (1970) Bluray Remux 1080p AVC DTS-HD MA 2.0 admin 0 627 07-30-2019, 08:35 AM
Last Post: admin
  The Conformist (1970) Bluray Remux 1080p VC-1 DD 2.0 admin 1 903 07-27-2019, 12:51 PM
Last Post: MaluB
  The Honeymoon Killers (1970) Bluray Remux 1080p AVC DD 1.0 admin 0 746 06-16-2019, 05:27 PM
Last Post: admin

Forum Jump:


Users browsing this thread: 1 Guest(s)

Powered By MyBB
Theme By Audentio Design
Updated By iAndrew | 2018