Thread Rating:
  • 0 Vote(s) - 0 Average
  • 1
  • 2
  • 3
  • 4
  • 5

[-]
Tags
time bluray about avc 2013 1080p en 1 remux dts 5 tr

  About Time (2013) Bluray Remux 1080p TR-EN AVC DTS 5.1
#1
About Time (2013) Bluray Remux 1080p TR-EN AVC DTS 5.1

[Image: tt2194499.jpg]

[Image: imdb.png]
https://www.imdb.com/title/tt2194499/

[Image: info.png]
About Time 2013 TR EN.mkv
Format                      : Matroska
Format version              : Version 4 / Version 2
File size                   : 29.6 GiB
Duration                    : 2 h 3 min
Overall bit rate mode       : Variable
Overall bit rate            : 34.4 Mb/s
Movie name                  : About Time
Encoded date                : UTC 2016-10-25 17:18:34
Writing application         : mkvmerge v9.5.0 ('Quiet Fire') 64bit
Writing library             : libebml v1.3.4 + libmatroska v1.4.5

Video
ID                          : 1
Format                      : AVC
Format/Info                 : Advanced Video Codec
Format profile              : [email protected]
Format settings             : CABAC / 4 Ref Frames
Format settings, CABAC      : Yes
Format settings, ReFrames   : 4 frames
Codec ID                    : V_MPEG4/ISO/AVC
Duration                    : 2 h 3 min
Bit rate mode               : Variable
Bit rate                    : 29.9 Mb/s
Maximum bit rate            : 33.0 Mb/s
Width                       : 1 920 pixels
Height                      : 1 080 pixels
Display aspect ratio        : 16:9
Frame rate mode             : Constant
Frame rate                  : 23.976 (24000/1001) FPS
Color space                 : YUV
Chroma subsampling          : 4:2:0
Bit depth                   : 8 bits
Scan type                   : Progressive
Bits/(Pixel*Frame)          : 0.601
Stream size                 : 25.8 GiB (87%)
Title                       : About Time
Language                    : English
Default                     : Yes
Forced                      : No

Audio #1
ID                          : 2
Format                      : DTS
Format/Info                 : Digital Theater Systems
Format profile              : MA / Core
Codec ID                    : A_DTS
Duration                    : 2 h 3 min
Bit rate mode               : Variable / Constant
Bit rate                    : 3 718 kb/s / 1 509 kb/s
Channel(s)                  : 6 channels
Channel positions           : Front: L C R, Side: L R, LFE
Sampling rate               : 48.0 kHz
Frame rate                  : 93.750 FPS (512 SPF)
Bit depth                   : 24 bits
Compression mode            : Lossless / Lossy
Stream size                 : 3.20 GiB (11%)
Title                       : English
Language                    : English
Default                     : Yes
Forced                      : No

Audio #2
ID                          : 3
Format                      : DTS
Format/Info                 : Digital Theater Systems
Codec ID                    : A_DTS
Duration                    : 2 h 3 min
Bit rate mode               : Constant
Bit rate                    : 768 kb/s
Channel(s)                  : 6 channels
Channel positions           : Front: L C R, Side: L R, LFE
Sampling rate               : 48.0 kHz
Frame rate                  : 93.750 FPS (512 SPF)
Bit depth                   : 24 bits
Compression mode            : Lossy
Stream size                 : 678 MiB (2%)
Title                       : Turkish
Language                    : Turkish
Default                     : No
Forced                      : No

Text #1
ID                          : 4
Format                      : PGS
Muxing mode                 : zlib
Codec ID                    : S_HDMV/PGS
Codec ID/Info               : Picture based subtitle format used on BDs/HD-DVDs
Duration                    : 1 h 56 min
Bit rate                    : 13.9 kb/s
Count of elements           : 4058
Stream size                 : 11.6 MiB (0%)
Title                       : English
Language                    : English
Default                     : No
Forced                      : No

Text #2
ID                          : 5
Format                      : PGS
Muxing mode                 : zlib
Codec ID                    : S_HDMV/PGS
Codec ID/Info               : Picture based subtitle format used on BDs/HD-DVDs
Duration                    : 2 h 2 min
Bit rate                    : 10.9 kb/s
Count of elements           : 3262
Stream size                 : 9.54 MiB (0%)
Title                       : Turkish
Language                    : Turkish
Default                     : Yes
Forced                      : No

[Image: pILxYA.jpg]

[Image: N56mUu.jpg]

[Image: tdown.png]

For Only Vip Members

About Time (2013) Bluray Remux 1080p TR-EN AVC DTS 5.1 VIP
Reply


Possibly Related Threads…
Thread Author Replies Views Last Post
  Prince of Persia The Sands of Time (2010) Bluray REMUX 1080p AVC DTS-HD MA 5.1 admin 0 498 01-29-2020, 01:30 PM
Last Post: admin
  Once Upon a Time In Hollywood (2019) Bluray Remux 1080p AVC DTS-HD MA 5.1-iFT admin 0 531 11-30-2019, 03:04 PM
Last Post: admin
  Once Upon a Time in China 1-2-3 (1991-1992-1993) Bluray Remux 1080p AVC DTS-HD MA 5.1 admin 0 861 06-27-2019, 10:36 AM
Last Post: admin
  Cinderella 3 A Twist in Time (2007) Bluray Remux 1080p TR EN AVC DTS-HD MA 5.1 admin 0 789 06-20-2019, 10:39 AM
Last Post: admin
  Once Upon a Time in the West (1968) Bluray Remux 1080p AVC DTS-HD MA 5.1 admin 0 740 06-13-2019, 04:12 PM
Last Post: admin

Forum Jump:


Users browsing this thread: 1 Guest(s)

Powered By MyBB
Theme By Audentio Design
Updated By iAndrew | 2018