Thread Rating:
  • 0 Vote(s) - 0 Average
  • 1
  • 2
  • 3
  • 4
  • 5

[-]
Tags
to time a bluray kill 1996 1 vc remux 5 truehd

  A Time to Kill (1996) Bluray Remux VC-1 TrueHD 5.1
#1
A Time to Kill (1996) Bluray Remux VC-1 TrueHD 5.1

[Image: tt0117913.jpg]

[Image: imdb.png]
https://www.imdb.com/title/tt0117913/

[Image: info.png]
A Time to Kill 1996 EN.mkv
Format                      : Matroska
Format version              : Version 4 / Version 2
File size                   : 24.6 GiB
Duration                    : 2 h 29 min
Overall bit rate mode       : Variable
Overall bit rate            : 23.5 Mb/s
Movie name                  : A Time to Kill
Encoded date                : UTC 2018-02-20 19:38:18
Writing application         : mkvmerge v20.0.0 ('I Am The Sun') 64-bit
Writing library             : libebml v1.3.5 + libmatroska v1.4.8

Video
ID                          : 1
Format                      : VC-1
Format profile              : [email protected]
Codec ID                    : V_MS/VFW/FOURCC / WVC1
Codec ID/Hint               : Microsoft
Duration                    : 2 h 29 min
Bit rate                    : 22.0 Mb/s
Width                       : 1 920 pixels
Height                      : 1 080 pixels
Display aspect ratio        : 16:9
Frame rate mode             : Constant
Frame rate                  : 23.976 (24000/1001) FPS
Color space                 : YUV
Chroma subsampling          : 4:2:0
Bit depth                   : 8 bits
Scan type                   : Progressive
Compression mode            : Lossy
Bits/(Pixel*Frame)          : 0.442
Stream size                 : 23.0 GiB (93%)
Title                       : A Time to Kill
Language                    : English
Default                     : Yes
Forced                      : No

Audio
ID                          : 2
Format                      : TrueHD
Codec ID                    : A_TRUEHD
Duration                    : 2 h 29 min
Bit rate mode               : Variable
Bit rate                    : 1 432 kb/s
Maximum bit rate            : 3 267 kb/s
Channel(s)                  : 6 channels
Channel positions           : Front: L C R, Side: L R, LFE
Sampling rate               : 48.0 kHz
Frame rate                  : 1 200.000 FPS (40 SPF)
Compression mode            : Lossless
Stream size                 : 1.50 GiB (6%)
Title                       : English
Language                    : English
Default                     : Yes
Forced                      : No

Text #1
ID                          : 3
Format                      : PGS
Muxing mode                 : zlib
Codec ID                    : S_HDMV/PGS
Codec ID/Info               : Picture based subtitle format used on BDs/HD-DVDs
Duration                    : 2 h 28 min
Bit rate                    : 40.7 kb/s
Count of elements           : 4180
Stream size                 : 43.1 MiB (0%)
Title                       : English SDH
Language                    : English
Default                     : No
Forced                      : No

Text #2
ID                          : 4
Format                      : PGS
Muxing mode                 : zlib
Codec ID                    : S_HDMV/PGS
Codec ID/Info               : Picture based subtitle format used on BDs/HD-DVDs
Duration                    : 2 h 23 min
Bit rate                    : 35.5 kb/s
Count of elements           : 3984
Stream size                 : 36.5 MiB (0%)
Title                       : Turkish
Language                    : Turkish
Default                     : Yes
Forced                      : No

[Image: cO6RXg.jpg]

[Image: TsoJbL.jpg]

[Image: tdown.png]

For Only Vip Members

A Time to Kill (1996) Bluray Remux VC-1 TrueHD 5.1 VIP
Reply


Possibly Related Threads…
Thread Author Replies Views Last Post
  Prince of Persia The Sands of Time (2010) Bluray REMUX 1080p AVC DTS-HD MA 5.1 admin 0 322 01-29-2020, 01:30 PM
Last Post: admin
  Once Upon a Time In Hollywood (2019) Bluray Remux 1080p AVC DTS-HD MA 5.1-iFT admin 0 379 11-30-2019, 03:04 PM
Last Post: admin
  The Chamber (1996) Bluray Remux 1080p AVC DTS-HD MA 5.1 admin 1 505 10-24-2019, 12:35 PM
Last Post: Nozirlx
  Mary Reilly (1996) Bluray Remux 1080p AVC DD 2.0 admin 0 415 08-31-2019, 11:24 AM
Last Post: admin
  Kill Switch (2008) Bluray Remux 1080p AVC DTS 5.1 admin 0 366 08-30-2019, 11:35 AM
Last Post: admin

Forum Jump:


Users browsing this thread: 1 Guest(s)

Powered By MyBB
Theme By Audentio Design
Updated By iAndrew | 2018