Thread Rating:
  • 0 Vote(s) - 0 Average
  • 1
  • 2
  • 3
  • 4
  • 5

[-]
Tags
to a bluray moment avc 1080p hd ma 2004 1 remux dts remember 5

 
  A Moment to Remember (2004) Bluray Remux 1080p AVC DTS-HD MA 5.1
#1
A Moment to Remember (2004) Bluray Remux 1080p AVC DTS-HD MA 5.1

[Image: tt0428870.jpg]

[Image: imdb.png]
https://www.imdb.com/title/tt0428870/

[Image: info.png]
A Moment to Remember aka Nae meorisokui jiwoogae 2004 KO.mkv
Format                      : Matroska
Format version              : Version 4 / Version 2
File size                   : 31.1 GiB
Duration                    : 2 h 24 min
Overall bit rate mode       : Variable
Overall bit rate            : 30.8 Mb/s
Movie name                  : A Moment to Remember aka Nae meorisokui jiwoogae
Encoded date                : UTC 2017-09-02 14:24:06
Writing application         : mkvmerge v15.0.0 ('Duel with the Devil') 64-bit
Writing library             : libebml v1.3.5 + libmatroska v1.4.5

Video
ID                          : 1
Format                      : AVC
Format/Info                 : Advanced Video Codec
Format profile              : [email protected]
Format settings, CABAC      : Yes
Format settings, ReFrames   : 4 frames
Format settings, GOP        : M=3, N=24
Codec ID                    : V_MPEG4/ISO/AVC
Duration                    : 2 h 24 min
Bit rate mode               : Variable
Bit rate                    : 27.9 Mb/s
Maximum bit rate            : 34.0 Mb/s
Width                       : 1 920 pixels
Height                      : 1 080 pixels
Display aspect ratio        : 16:9
Frame rate mode             : Constant
Frame rate                  : 23.976 (24000/1001) FPS
Standard                    : NTSC
Color space                 : YUV
Chroma subsampling          : 4:2:0
Bit depth                   : 8 bits
Scan type                   : Progressive
Bits/(Pixel*Frame)          : 0.561
Stream size                 : 28.2 GiB (91%)
Title                       : A Moment to Remember aka Nae meorisokui jiwoogae
Language                    : Korean
Default                     : Yes
Forced                      : No
Color range                 : Limited
Color primaries             : BT.709
Transfer characteristics    : BT.709
Matrix coefficients         : BT.709

Audio
ID                          : 2
Format                      : DTS
Format/Info                 : Digital Theater Systems
Format profile              : MA / Core
Mode                        : 16
Format settings, Endianness : Big
Codec ID                    : A_DTS
Duration                    : 2 h 24 min
Bit rate mode               : Variable / Constant
Bit rate                    : 2 872 kb/s / 1 509 kb/s
Channel(s)                  : 6 channels
Channel positions           : Front: L C R, Side: L R, LFE
Sampling rate               : 48.0 kHz
Frame rate                  : 93.750 FPS (512 spf)
Bit depth                   : 24 bits
Compression mode            : Lossless / Lossy
Stream size                 : 2.91 GiB (9%)
Title                       : Korean
Language                    : Korean
Default                     : Yes
Forced                      : No

Text #1
ID                          : 3
Format                      : PGS
Muxing mode                 : zlib
Codec ID                    : S_HDMV/PGS
Codec ID/Info               : Picture based subtitle format used on BDs/HD-DVDs
Duration                    : 2 h 20 min
Bit rate                    : 22.7 kb/s
Count of elements           : 2579
Stream size                 : 22.8 MiB (0%)
Title                       : English
Language                    : English
Default                     : No
Forced                      : No

Text #2
ID                          : 4
Format                      : PGS
Muxing mode                 : zlib
Codec ID                    : S_HDMV/PGS
Codec ID/Info               : Picture based subtitle format used on BDs/HD-DVDs
Duration                    : 2 h 21 min
Bit rate                    : 17.0 kb/s
Count of elements           : 2588
Stream size                 : 17.2 MiB (0%)
Title                       : Turkish
Language                    : Turkish
Default                     : Yes
Forced                      : No

[Image: 47782025102_3b095b6f7d_b.jpg]

[Image: 47782026592_092bddcf2a_b.jpg]

[Image: tdown.png]

For Only Vip Members

A Moment to Remember (2004) Bluray Remux 1080p AVC DTS-HD MA 5.1 VIP
Reply


Possibly Related Threads…
Thread Author Replies Views Last Post
  Spanglish 2004 BluRay Remux 1080p AVC DTS-HD MA 5.1-PTP KAiJu 0 6 05-22-2022, 01:02 PM
Last Post: KAiJu
  Without a Paddle 2004 1080p BluRay REMUX AVC TrueHD 5 1-EPSiLON KAiJu 0 42 04-07-2022, 06:24 AM
Last Post: KAiJu
  Eros 2004 1080p BluRay REMUX AVC DTS-HD MA 5.1-TRiToN KAiJu 0 45 04-05-2022, 03:13 PM
Last Post: KAiJu
  The Butterfly Effect 2004 (Directors Cut)1080p Blu-ray ReMuX AVC DTS-HD MA 6 1-HiDeFZ KAiJu 0 77 03-14-2022, 03:33 PM
Last Post: KAiJu
  King Solomon's Mines 2004 Part One 1080p Blu-ray Remux AVC DD 2.0 - KRaLiMaRKo KAiJu 0 79 03-04-2022, 08:10 AM
Last Post: KAiJu

Forum Jump:


Users browsing this thread: 1 Guest(s)

Powered By MyBB
RSS RSS Syndication
Updated By iAndrew | 2022