Thread Rating:
  • 0 Vote(s) - 0 Average
  • 1
  • 2
  • 3
  • 4
  • 5

[-]
Tags
a bluray history 1080p of 1 vc remux 2005 violence 5 truehd

  A History of Violence (2005) Bluray Remux 1080p VC-1 TrueHD 5.1
#1
A History of Violence (2005) Bluray Remux 1080p VC-1 TrueHD 5.1

[Image: tt0399146.jpg]

[Image: imdb.png]
https://www.imdb.com/title/tt0399146/

[Image: info.png]
A History of Violence 2005 EN.mkv
Format                      : Matroska
Format version              : Version 4 / Version 2
File size                   : 13.6 GiB
Duration                    : 1 h 35 min
Overall bit rate mode       : Variable
Overall bit rate            : 20.3 Mb/s
Movie name                  : A History of Violence
Encoded date                : UTC 2015-01-03 16:38:39
Writing application         : mkvmerge v7.4.0 ('Circles') 64bit built on Dec 12 2014 12:19:56
Writing library             : libebml v1.3.0 + libmatroska v1.4.1

Video
ID                          : 1
Format                      : VC-1
Format profile              : [email protected]
Codec ID                    : V_MS/VFW/FOURCC / WVC1
Codec ID/Hint               : Microsoft
Duration                    : 1 h 35 min
Bit rate                    : 18.4 Mb/s
Width                       : 1 920 pixels
Height                      : 1 080 pixels
Display aspect ratio        : 16:9
Frame rate mode             : Constant
Frame rate                  : 23.976 (24000/1001) FPS
Color space                 : YUV
Chroma subsampling          : 4:2:0
Bit depth                   : 8 bits
Scan type                   : Progressive
Compression mode            : Lossy
Bits/(Pixel*Frame)          : 0.370
Stream size                 : 12.3 GiB (90%)
Title                       : A History of Violence
Language                    : English
Default                     : Yes
Forced                      : No

Audio #1
ID                          : 2
Format                      : TrueHD
Codec ID                    : A_TRUEHD
Duration                    : 1 h 35 min
Bit rate mode               : Variable
Bit rate                    : 1 212 kb/s
Maximum bit rate            : 3 168 kb/s
Channel(s)                  : 6 channels
Channel positions           : Front: L C R, Side: L R, LFE
Sampling rate               : 48.0 kHz
Frame rate                  : 1 200.000 FPS (40 spf)
Compression mode            : Lossless
Stream size                 : 830 MiB (6%)
Title                       : English THD
Language                    : English
Default                     : Yes
Forced                      : No

Audio #2
ID                          : 3
Format                      : AC-3
Format/Info                 : Audio Coding 3
Format settings, Endianness : Big
Codec ID                    : A_AC3
Duration                    : 1 h 35 min
Bit rate mode               : Constant
Bit rate                    : 640 kb/s
Channel(s)                  : 6 channels
Channel positions           : Front: L C R, Side: L R, LFE
Sampling rate               : 48.0 kHz
Frame rate                  : 31.250 FPS (1536 spf)
Bit depth                   : 16 bits
Compression mode            : Lossy
Stream size                 : 438 MiB (3%)
Title                       : English AC3
Language                    : English
Service kind                : Complete Main
Default                     : No
Forced                      : No

Text #1
ID                          : 4
Format                      : PGS
Muxing mode                 : zlib
Codec ID                    : S_HDMV/PGS
Codec ID/Info               : Picture based subtitle format used on BDs/HD-DVDs
Duration                    : 1 h 25 min
Bit rate                    : 10.9 kb/s
Count of elements           : 1794
Stream size                 : 6.69 MiB (0%)
Title                       : English
Language                    : English
Default                     : No
Forced                      : No

Text #2
ID                          : 5
Format                      : PGS
Muxing mode                 : zlib
Codec ID                    : S_HDMV/PGS
Codec ID/Info               : Picture based subtitle format used on BDs/HD-DVDs
Duration                    : 1 h 25 min
Bit rate                    : 10.5 kb/s
Count of elements           : 1882
Stream size                 : 6.46 MiB (0%)
Title                       : Turkish
Language                    : Turkish
Default                     : Yes
Forced                      : No

[Image: vlcsnap-error550-jpg-b2bb87abbf7515d5c24...deafc1.jpg]

[Image: vlcsnap-error862-jpg-88f33a85a09aec349b6...19f052.jpg]

[Image: tdown.png]

For Only Vip Members

A History of Violence (2005) Bluray Remux 1080p VC-1 TrueHD 5.1 VIP
Reply


Possibly Related Threads…
Thread Author Replies Views Last Post
  Bloodrayne 2005 1080p Remux VC-1 DTS-HD High-Res 5 1-playBD KAiJu 0 62 10-28-2020, 10:09 AM
Last Post: KAiJu
  The Island (2005) Bluray REMUX 1080p VC-1 DD 5.1-EiMi AbrA 0 63 10-23-2020, 07:47 PM
Last Post: AbrA
  The Dark Knight Trilogy (2005-2005-2012) Bluray REMUX 1080p VC-1 TrueHD 5.1 AbrA 0 332 08-06-2020, 07:46 PM
Last Post: AbrA
  The Chronicles of Narnia Trilogy (2005-2008-2010) Bluray REMUX 1080p AVC DTS-HD MA AbrA 0 391 08-02-2020, 10:29 PM
Last Post: AbrA
  Robots (2005) Bluray REMUX 1080p AVC DTS 5.1-HUSe AbrA 0 422 05-22-2020, 10:24 PM
Last Post: AbrA

Forum Jump:


Users browsing this thread: 1 Guest(s)

Powered By MyBB
Theme By Audentio Design
Updated By iAndrew | 2018