Thread Rating:
  • 0 Vote(s) - 0 Average
  • 1
  • 2
  • 3
  • 4
  • 5

[-]
Tags
a bluray song avc 1080p 2016 dark hd ma 1 remux dts 5

  A Dark Song (2016) Bluray Remux 1080p AVC DTS-HD MA 5.1
#1
A Dark Song (2016) Bluray Remux 1080p AVC DTS-HD MA 5.1

[Image: tt4805316.jpg]

[Image: imdb.png]
https://www.imdb.com/title/tt4805316/

[Image: info.png]
A Dark Song 2016 EN.mkv
Format                      : Matroska
Format version              : Version 4 / Version 2
File size                   : 18.1 GiB
Duration                    : 1 h 39 min
Overall bit rate mode       : Variable
Overall bit rate            : 26.0 Mb/s
Movie name                  : A Dark Song
Encoded date                : UTC 2017-09-01 16:16:47
Writing application         : mkvmerge v15.0.0 ('Duel with the Devil') 64-bit
Writing library             : libebml v1.3.5 + libmatroska v1.4.5

Video
ID                          : 1
Format                      : AVC
Format/Info                 : Advanced Video Codec
Format profile              : [email protected]
Format settings, CABAC      : Yes
Format settings, ReFrames   : 2 frames
Format settings, GOP        : M=1, N=5
Codec ID                    : V_MPEG4/ISO/AVC
Duration                    : 1 h 39 min
Bit rate mode               : Variable
Bit rate                    : 23.2 Mb/s
Maximum bit rate            : 34.2 Mb/s
Width                       : 1 920 pixels
Height                      : 1 080 pixels
Display aspect ratio        : 16:9
Frame rate mode             : Constant
Frame rate                  : 23.976 (24000/1001) FPS
Color space                 : YUV
Chroma subsampling          : 4:2:0
Bit depth                   : 8 bits
Scan type                   : Progressive
Bits/(Pixel*Frame)          : 0.467
Stream size                 : 16.2 GiB (89%)
Title                       : A Dark Song
Language                    : English
Default                     : Yes
Forced                      : No

Audio
ID                          : 2
Format                      : DTS
Format/Info                 : Digital Theater Systems
Format profile              : MA / Core
Mode                        : 16
Format settings, Endianness : Big
Codec ID                    : A_DTS
Duration                    : 1 h 39 min
Bit rate mode               : Variable / Constant
Bit rate                    : 2 746 kb/s / 1 509 kb/s
Channel(s)                  : 6 channels
Channel positions           : Front: L C R, Side: L R, LFE
Sampling rate               : 48.0 kHz
Frame rate                  : 93.750 FPS (512 spf)
Bit depth                   : 24 bits
Compression mode            : Lossless / Lossy
Stream size                 : 1.92 GiB (11%)
Title                       : English
Language                    : English
Default                     : Yes
Forced                      : No

Text #1
ID                          : 3
Format                      : PGS
Muxing mode                 : zlib
Codec ID                    : S_HDMV/PGS
Codec ID/Info               : Picture based subtitle format used on BDs/HD-DVDs
Duration                    : 1 h 34 min
Bit rate                    : 22.0 kb/s
Count of elements           : 1534
Stream size                 : 14.9 MiB (0%)
Title                       : English SDH
Language                    : English
Default                     : No
Forced                      : No

Text #2
ID                          : 4
Format                      : PGS
Muxing mode                 : zlib
Codec ID                    : S_HDMV/PGS
Codec ID/Info               : Picture based subtitle format used on BDs/HD-DVDs
Duration                    : 1 h 32 min
Bit rate                    : 15.8 kb/s
Count of elements           : 1600
Stream size                 : 10.5 MiB (0%)
Title                       : Turkish
Language                    : Turkish
Default                     : Yes
Forced                      : No

[Image: 47834029161_371444b555_b.jpg]

[Image: 40867405253_3416b484e9_b.jpg]

[Image: tdown.png]

For Only Vip Members

A Dark Song (2016) Bluray Remux 1080p AVC DTS-HD MA 5.1 VIP
Reply


Possibly Related Threads…
Thread Author Replies Views Last Post
  The Last Song (2010) Bluray REMUX 1080p AVC DTS-HD MA 5.1-HUSe AbrA 0 89 11-05-2020, 12:17 PM
Last Post: AbrA
  The Dark Knight Trilogy (2005-2005-2012) Bluray REMUX 1080p VC-1 TrueHD 5.1 AbrA 0 351 08-06-2020, 07:46 PM
Last Post: AbrA
  Scary Stories to Tell in the Dark (2019) Bluray REMUX 1080p TR-EN AVC TrueHD 5.1-TURG AbrA 0 643 04-18-2020, 05:27 PM
Last Post: AbrA
  Dark Phoenix (2019) Bluray Remux 1080p AVC DTS 7.1 admin 0 1,521 09-08-2019, 09:25 AM
Last Post: admin
  Unfriended Dark Web (2018) Bluray Remux 1080p AVC DTS-HD MA 5.1 admin 0 856 07-22-2019, 01:23 PM
Last Post: admin

Forum Jump:


Users browsing this thread: 1 Guest(s)

Powered By MyBB
Theme By Audentio Design
Updated By iAndrew | 2018