Thread Rating:
  • 0 Vote(s) - 0 Average
  • 1
  • 2
  • 3
  • 4
  • 5

[-]
Tags
a dd bluray action civil avc 1080p 1 1998 remux 5

 
  A Civil Action (1998) Bluray Remux 1080p AVC DD 5.1
#1
A Civil Action (1998) Bluray Remux 1080p AVC DD 5.1

[Image: tt0120633.jpg]

[Image: imdb.png]
https://www.imdb.com/title/tt0120633/

[Image: info.png]
A Civil Action 1998 EN.mkv
Format                      : Matroska
Format version              : Version 4 / Version 2
File size                   : 5.12 GiB
Duration                    : 1 h 54 min
Overall bit rate            : 6 389 kb/s
Movie name                  : A Civil Action
Encoded date                : UTC 2017-07-09 18:07:15
Writing application         : mkvmerge v13.0.0 ('The Juggler') 64bit
Writing library             : libebml v1.3.4 + libmatroska v1.4.5

Video
ID                          : 1
Format                      : AVC
Format/Info                 : Advanced Video Codec
Format profile              : [email protected]
Format settings, CABAC      : Yes
Format settings, ReFrames   : 4 frames
Codec ID                    : V_MPEG4/ISO/AVC
Duration                    : 1 h 54 min
Bit rate                    : 5 733 kb/s
Width                       : 1 920 pixels
Height                      : 1 080 pixels
Display aspect ratio        : 16:9
Frame rate mode             : Constant
Frame rate                  : 23.976 (24000/1001) FPS
Color space                 : YUV
Chroma subsampling          : 4:2:0
Bit depth                   : 8 bits
Scan type                   : Progressive
Bits/(Pixel*Frame)          : 0.115
Stream size                 : 4.60 GiB (90%)
Title                       : A Civil Action
Language                    : English
Default                     : Yes
Forced                      : No

Audio
ID                          : 3
Format                      : E-AC-3
Format/Info                 : Enhanced Audio Coding 3
Format settings, Endianness : Big
Codec ID                    : A_EAC3
Duration                    : 1 h 54 min
Bit rate mode               : Constant
Bit rate                    : 640 kb/s
Channel(s)                  : 6 channels
Channel positions           : Front: L C R, Side: L R, LFE
Sampling rate               : 48.0 kHz
Frame rate                  : 187.500 FPS (256 spf)
Compression mode            : Lossy
Delay relative to video     : 38 ms
Stream size                 : 525 MiB (10%)
Title                       : English
Language                    : English
Service kind                : Complete Main
Default                     : Yes
Forced                      : No

Text #1
ID                          : 2
Format                      : UTF-8
Codec ID                    : S_TEXT/UTF8
Codec ID/Info               : UTF-8 Plain Text
Duration                    : 1 h 53 min
Bit rate                    : 82 b/s
Count of elements           : 1840
Stream size                 : 68.7 KiB (0%)
Title                       : English
Language                    : English
Default                     : No
Forced                      : No

Text #2
ID                          : 4
Format                      : PGS
Muxing mode                 : zlib
Codec ID                    : S_HDMV/PGS
Codec ID/Info               : Picture based subtitle format used on BDs/HD-DVDs
Duration                    : 1 h 48 min
Bit rate                    : 30.0 kb/s
Count of elements           : 2524
Stream size                 : 23.4 MiB (0%)
Title                       : Turkish
Language                    : Turkish
Default                     : Yes
Forced                      : No

[Image: vlcsnap-error435-jpg-6763290ac8709fff9da...386125.jpg]

[Image: vlcsnap-error596-jpg-ccb02854a2acbf7a8eb...8a4818.jpg]

[Image: tdown.png]

For Only Vip Members

A Civil Action (1998) Bluray Remux 1080p AVC DD 5.1 VIP
Reply
#2
how to download without VIP? thanks
Reply
#3
(04-10-2021, 08:04 AM)motishow Wrote: how to download without VIP? thanks

Sorry, only vip members can download
Reply


Possibly Related Threads…
Thread Author Replies Views Last Post
  What Dreams May Come 1998 1080p Blu-ray Remux AVC DTS-HD MA 5.1 - KRaLiMaRKo KAiJu 0 49 10-13-2021, 11:55 AM
Last Post: KAiJu
  Who Am I (1998) Bluray Remux 1080p TR-EN AVC DTS-HD MA 5.1 admin 1 1,454 10-11-2021, 04:41 PM
Last Post: Sunnypiglet
  Blast from the Past (1998) Bluray REMUX 1080p AVC DTS-HD MA 5.1-HUS AbrA 0 52 09-18-2021, 07:47 PM
Last Post: AbrA
  Little Voice 1998 1080p Remux AVC DTS-HD MA 5.1-playBD KAiJu 0 46 09-17-2021, 06:17 AM
Last Post: KAiJu
  Last Action Hero (1992) Bluray REMUX 1080p AVC DTS-HD MA 5.1-HUS AbrA 0 40 09-12-2021, 08:13 PM
Last Post: AbrA

Forum Jump:


Users browsing this thread: 1 Guest(s)

Powered By MyBB
RSS RSS Syndication
Updated By iAndrew | 2021