Thread Rating:
  • 0 Vote(s) - 0 Average
  • 1
  • 2
  • 3
  • 4
  • 5

[-]
Tags
a bluray avc 1080p hd ma 1 mind remux 2001 dts 5 beautiful

  A Beautiful Mind (2001) Bluray remux 1080p AVC DTS-HD MA 5.1
#1
A Beautiful Mind (2001) Bluray Remux 1080p TR-EN AVC DTS-HD MA 5.1

[Image: tt0268978.jpg]

[Image: imdb.png]
https://www.imdb.com/title/tt0268978/

[Image: info.png]
A Beautiful Mind 2001 TR EN.mkv
Format                      : Matroska
Format version              : Version 4 / Version 2
File size                   : 17.9 GiB
Duration                    : 2 h 15 min
Overall bit rate mode       : Variable
Overall bit rate            : 18.9 Mb/s
Movie name                  : A Beautiful Mind
Encoded date                : UTC 2015-05-15 20:52:41
Writing application         : mkvmerge v7.9.0 ('Birds') 64bit
Writing library             : libebml v1.3.1 + libmatroska v1.4.2

Video
ID                          : 1
Format                      : AVC
Format/Info                 : Advanced Video Codec
Format profile              : [email protected]
Format settings, CABAC      : Yes
Format settings, ReFrames   : 2 frames
Codec ID                    : V_MPEG4/ISO/AVC
Duration                    : 2 h 15 min
Bit rate mode               : Variable
Bit rate                    : 14.9 Mb/s
Maximum bit rate            : 35.0 Mb/s
Width                       : 1 920 pixels
Height                      : 1 080 pixels
Display aspect ratio        : 16:9
Frame rate mode             : Constant
Frame rate                  : 23.976 (24000/1001) FPS
Color space                 : YUV
Chroma subsampling          : 4:2:0
Bit depth                   : 8 bits
Scan type                   : Progressive
Bits/(Pixel*Frame)          : 0.299
Stream size                 : 13.6 GiB (76%)
Title                       : A Beautiful Mind
Writing library             : x264 core 142
Encoding settings           : cabac=1 / ref=1 / deblock=1:-1:-1 / analyse=0x3:0x112 / me=dia / subme=1 / psy=0 / mixed_ref=0 / me_range=12 / chroma_me=1 / trellis=0 / 8x8dct=1 / cqm=0 / deadzone=21,11 / fast_pskip=1 / chroma_qp_offset=0 / threads=8 / lookahead_threads=4 / sliced_threads=0 / nr=0 / decimate=1 / interlaced=0 / bluray_compat=0 / constrained_intra=0 / bframes=5 / b_pyramid=0 / b_adapt=2 / b_bias=0 / direct=3 / weightb=1 / open_gop=0 / weightp=0 / keyint=1000 / keyint_min=2 / scenecut=40 / intra_refresh=0 / rc_lookahead=2 / rc=abr / mbtree=0 / bitrate=14878 / ratetol=1.0 / qcomp=0.50 / qpmin=0 / qpmax=69 / qpstep=4 / vbv_maxrate=35000 / vbv_bufsize=30000 / nal_hrd=vbr / filler=0 / ip_ratio=1.10 / pb_ratio=1.10 / aq=1:1.00
Language                    : English
Default                     : Yes
Forced                      : No
Color range                 : Limited
Color primaries             : BT.709
Transfer characteristics    : BT.709
Matrix coefficients         : BT.709

Audio #1
ID                          : 2
Format                      : DTS
Format/Info                 : Digital Theater Systems
Format profile              : MA / Core
Mode                        : 16
Format settings, Endianness : Big
Codec ID                    : A_DTS
Duration                    : 2 h 15 min
Bit rate mode               : Variable / Constant
Bit rate                    : 4 093 kb/s / 1 509 kb/s
Channel(s)                  : 6 channels
Channel positions           : Front: L C R, Side: L R, LFE
Sampling rate               : 48.0 kHz
Frame rate                  : 93.750 FPS (512 spf)
Bit depth                   : 24 bits
Compression mode            : Lossless / Lossy
Stream size                 : 3.87 GiB (22%)
Title                       : English
Language                    : English
Default                     : Yes
Forced                      : No

Audio #2
ID                          : 3
Format                      : AC-3
Format/Info                 : Audio Coding 3
Format settings, Endianness : Big
Codec ID                    : A_AC3
Duration                    : 2 h 15 min
Bit rate mode               : Constant
Bit rate                    : 384 kb/s
Channel(s)                  : 6 channels
Channel positions           : Front: L C R, Side: L R, LFE
Sampling rate               : 48.0 kHz
Frame rate                  : 31.250 FPS (1536 spf)
Bit depth                   : 16 bits
Compression mode            : Lossy
Stream size                 : 372 MiB (2%)
Title                       : Turkish
Language                    : Turkish
Service kind                : Complete Main
Default                     : No
Forced                      : No

Text #1
ID                          : 4
Format                      : PGS
Muxing mode                 : zlib
Codec ID                    : S_HDMV/PGS
Codec ID/Info               : Picture based subtitle format used on BDs/HD-DVDs
Duration                    : 2 h 6 min
Bit rate                    : 8 927 b/s
Count of elements           : 2760
Stream size                 : 8.10 MiB (0%)
Title                       : English
Language                    : English
Default                     : No
Forced                      : No

Text #2
ID                          : 5
Format                      : PGS
Muxing mode                 : zlib
Codec ID                    : S_HDMV/PGS
Codec ID/Info               : Picture based subtitle format used on BDs/HD-DVDs
Duration                    : 2 h 7 min
Bit rate                    : 15.9 kb/s
Count of elements           : 2814
Stream size                 : 14.5 MiB (0%)
Title                       : Turkish
Language                    : Turkish
Default                     : Yes
Forced                      : No

[Image: vlcsnap-error061-jpg-3220d2fa69739ffb78a...3f8be3.jpg]

[Image: vlcsnap-error481-jpg-d06fe9e9f811045b1c7...4b7cce.jpg]

[Image: tdown.png]

For Only Vip Members

A Beautiful Mind (2001) Bluray remux 1080p AVC DTS-HD MA 5.1 VIP
Reply


Possibly Related Threads…
Thread Author Replies Views Last Post
  The Others 2001 1080p Remux AVC DTS-HD MA 5.1-playBD KAiJu 0 89 11-30-2020, 01:35 PM
Last Post: KAiJu
  Attila 2001 BluRay Remux 1080p AVC DTS-HD MA 5.1-HiFi KAiJu 0 99 10-20-2020, 07:28 AM
Last Post: KAiJu
  The Pledge 2001 1080p Blu-ray Remux AVC FLAC 2.0 - KRaLiMaRKo KAiJu 0 130 10-15-2020, 07:23 AM
Last Post: KAiJu
  Rush Hour 1-2-3 (1998-2001-2007) Bluray REMUX 1080p TR-EN DD 5.1 x264-TURG admin 0 793 02-05-2020, 11:18 AM
Last Post: admin
  Le Pacte des Loups (2001) Bluray Remux 1080p AVC DTS-HD MA 5.1 admin 0 904 08-21-2019, 07:28 PM
Last Post: admin

Forum Jump:


Users browsing this thread: 1 Guest(s)

Powered By MyBB
Theme By Audentio Design
Updated By iAndrew | 2018