Thread Rating:
  • 0 Vote(s) - 0 Average
  • 1
  • 2
  • 3
  • 4
  • 5

[-]
Tags
street bluray avc 1080p en 22 jump 1 remux 2014 dts 5 tr

  22 Jump Street (2014) Bluray Remux 1080p TR-EN AVC DTS 5.1
#1
22 Jump Street (2014) Bluray Remux 1080p TR-EN AVC DTS 5.1

[Image: tt2294449.jpg]

[Image: imdb.png]
https://www.imdb.com/title/tt2294449/

[Image: info.png]
22 Jump Street 2014 TR EN.mkv
Format                      : Matroska
Format version              : Version 4 / Version 2
File size                   : 21.8 GiB
Duration                    : 1 h 51 min
Overall bit rate mode       : Variable
Overall bit rate            : 27.9 Mb/s
Movie name                  : 22 Jump Street
Encoded date                : UTC 2014-10-11 17:31:34
Writing application         : mkvmerge v7.2.0 ('On Every Street') 64bit built on Sep 13 2014 15:52:10
Writing library             : libebml v1.3.0 + libmatroska v1.4.1

Video
ID                          : 1
Format                      : AVC
Format/Info                 : Advanced Video Codec
Format profile              : [email protected]
Format settings             : CABAC / 2 Ref Frames
Format settings, CABAC      : Yes
Format settings, ReFrames   : 2 frames
Format settings, GOP        : M=1, N=10
Codec ID                    : V_MPEG4/ISO/AVC
Duration                    : 1 h 51 min
Bit rate mode               : Variable
Bit rate                    : 24.9 Mb/s
Width                       : 1 920 pixels
Height                      : 1 080 pixels
Display aspect ratio        : 16:9
Frame rate mode             : Constant
Frame rate                  : 23.976 (24000/1001) FPS
Color space                 : YUV
Chroma subsampling          : 4:2:0
Bit depth                   : 8 bits
Scan type                   : Progressive
Bits/(Pixel*Frame)          : 0.501
Stream size                 : 19.5 GiB (89%)
Title                       : 22 Jump Street
Language                    : English
Default                     : Yes
Forced                      : No

Audio #1
ID                          : 2
Format                      : DTS
Format/Info                 : Digital Theater Systems
Format profile              : MA / Core
Codec ID                    : A_DTS
Duration                    : 1 h 51 min
Bit rate mode               : Variable / Constant
Bit rate                    : 2 294 kb/s / 1 509 kb/s
Channel(s)                  : 6 channels
Channel positions           : Front: L C R, Side: L R, LFE
Sampling rate               : 48.0 kHz
Frame rate                  : 93.750 FPS (512 SPF)
Bit depth                   : 16 bits
Compression mode            : Lossless / Lossy
Stream size                 : 1.79 GiB (8%)
Title                       : English
Language                    : English
Default                     : Yes
Forced                      : No

Audio #2
ID                          : 3
Format                      : AC-3
Format/Info                 : Audio Coding 3
Codec ID                    : A_AC3
Duration                    : 1 h 51 min
Bit rate mode               : Constant
Bit rate                    : 640 kb/s
Channel(s)                  : 6 channels
Channel positions           : Front: L C R, Side: L R, LFE
Sampling rate               : 48.0 kHz
Frame rate                  : 31.250 FPS (1536 SPF)
Bit depth                   : 16 bits
Compression mode            : Lossy
Stream size                 : 512 MiB (2%)
Title                       : Turkish
Language                    : Turkish
Service kind                : Complete Main
Default                     : No
Forced                      : No

Text #1
ID                          : 4
Format                      : PGS
Muxing mode                 : zlib
Codec ID                    : S_HDMV/PGS
Codec ID/Info               : Picture based subtitle format used on BDs/HD-DVDs
Duration                    : 1 h 50 min
Bit rate                    : 16.2 kb/s
Count of elements           : 4028
Stream size                 : 12.8 MiB (0%)
Title                       : English
Language                    : English
Default                     : No
Forced                      : No

Text #2
ID                          : 5
Format                      : PGS
Muxing mode                 : zlib
Codec ID                    : S_HDMV/PGS
Codec ID/Info               : Picture based subtitle format used on BDs/HD-DVDs
Duration                    : 1 h 50 min
Bit rate                    : 13.5 kb/s
Count of elements           : 3656
Stream size                 : 10.7 MiB (0%)
Title                       : Turkish
Language                    : Turkish
Default                     : Yes
Forced                      : No

[Image: 47817189892_9c36043f69_b.jpg]

[Image: 47869419921_ea3cb3346e_b.jpg]

[Image: tdown.png]

For Only Vip Members

22 Jump Street (2014) Bluray Remux 1080p TR-EN AVC DTS 5.1 VIP
Reply


Possibly Related Threads…
Thread Author Replies Views Last Post
  The Wolf of Wall Street (2014) Bluray Remux 1080p TR EN AVC DTS 5.1 admin 0 453 09-08-2019, 11:47 AM
Last Post: admin
  If Beale Street Could Talk (2018) Bluray Remux 1080p AVC DTS-HD MA 7.1 admin 0 479 08-15-2019, 07:59 AM
Last Post: admin
  If Beale Street Could Talk (2018) Bluray Remux 1080p AVC DTS-HD MA 5.1 admin 0 432 07-18-2019, 11:44 AM
Last Post: admin
  White Men Cant Jump (1992) Bluray Remux 1080p AVC DTS-HD MA 5.1 admin 0 503 07-06-2019, 12:04 PM
Last Post: admin
  House at the End of the Street (2012) Bluray Remux 1080p AVC DTS-HD MA 5.1 admin 0 530 06-22-2019, 11:51 AM
Last Post: admin

Forum Jump:


Users browsing this thread: 1 Guest(s)

Powered By MyBB
Theme By Audentio Design
Updated By iAndrew | 2018