Thread Rating:
  • 0 Vote(s) - 0 Average
  • 1
  • 2
  • 3
  • 4
  • 5

[-]
Tags
bluray avc 1080p en hd 22 ma 1 2 remux dts 5 tr 2008

 
  2-22 (2008) Bluray Remux 1080p TR-EN AVC DTS-HD MA 5.1
#1
2-22 (2008) Bluray Remux 1080p TR-EN AVC DTS-HD MA 5.1

[Image: tt1261041.jpg]

[Image: imdb.png]
https://www.imdb.com/title/tt1261041/

[Image: info.png]
2-22 2008 TR EN.mkv
Format                      : Matroska
Format version              : Version 4 / Version 2
File size                   : 15.8 GiB
Duration                    : 1 h 44 min
Overall bit rate mode       : Variable
Overall bit rate            : 21.8 Mb/s
Encoded date                : UTC 2014-06-12 16:11:52
Writing application         : mkvmerge v7.0.0 ('Where We Going') 64bit built on Jun  9 2014 15:16:27
Writing library             : libebml v1.3.0 + libmatroska v1.4.1

Video
ID                          : 1
Format                      : AVC
Format/Info                 : Advanced Video Codec
Format profile              : [email protected]
Format settings             : CABAC / 4 Ref Frames
Format settings, CABAC      : Yes
Format settings, ReFrames   : 4 frames
Codec ID                    : V_MPEG4/ISO/AVC
Duration                    : 1 h 44 min
Bit rate mode               : Variable
Bit rate                    : 17.9 Mb/s
Maximum bit rate            : 32.0 Mb/s
Width                       : 1 920 pixels
Height                      : 1 080 pixels
Display aspect ratio        : 16:9
Frame rate mode             : Constant
Frame rate                  : 23.976 (24000/1001) FPS
Color space                 : YUV
Chroma subsampling          : 4:2:0
Bit depth                   : 8 bits
Scan type                   : Progressive
Bits/(Pixel*Frame)          : 0.361
Stream size                 : 13.0 GiB (82%)
Title                       : 2-22
Language                    : English
Default                     : Yes
Forced                      : No
Color range                 : Limited
Color primaries             : BT.709
Transfer characteristics    : BT.709
Matrix coefficients         : BT.709

Audio #1
ID                          : 2
Format                      : DTS
Format/Info                 : Digital Theater Systems
Format profile              : MA / Core
Codec ID                    : A_DTS
Duration                    : 1 h 44 min
Bit rate mode               : Variable / Constant
Bit rate                    : 1 920 kb/s / 1 509 kb/s
Channel(s)                  : 6 channels
Channel positions           : Front: L C R, Side: L R, LFE
Sampling rate               : 48.0 kHz
Frame rate                  : 93.750 FPS (512 SPF)
Bit depth                   : 16 bits
Compression mode            : Lossless / Lossy
Stream size                 : 1.39 GiB (9%)
Title                       : Turkish
Language                    : Turkish
Default                     : No
Forced                      : No

Audio #2
ID                          : 3
Format                      : DTS
Format/Info                 : Digital Theater Systems
Format profile              : MA / Core
Codec ID                    : A_DTS
Duration                    : 1 h 44 min
Bit rate mode               : Variable / Constant
Bit rate                    : 1 920 kb/s / 1 509 kb/s
Channel(s)                  : 6 channels
Channel positions           : Front: L C R, Side: L R, LFE
Sampling rate               : 48.0 kHz
Frame rate                  : 93.750 FPS (512 SPF)
Bit depth                   : 16 bits
Compression mode            : Lossless / Lossy
Stream size                 : 1.39 GiB (9%)
Title                       : English
Language                    : English
Default                     : Yes
Forced                      : No

Text
ID                          : 4
Format                      : PGS
Muxing mode                 : zlib
Codec ID                    : S_HDMV/PGS
Codec ID/Info               : Picture based subtitle format used on BDs/HD-DVDs
Duration                    : 1 h 39 min
Bit rate                    : 12.8 kb/s
Count of elements           : 1516
Stream size                 : 9.10 MiB (0%)
Title                       : Turkish
Language                    : Turkish
Default                     : Yes
Forced                      : No

[Image: r8Ab6O.jpg]

[Image: 7AFXJu.jpg]

[Image: tdown.png]

For Only Vip Members

2-22 (2008) Bluray Remux 1080p TR-EN AVC DTS-HD MA 5.1 VIP
Reply


Possibly Related Threads…
Thread Author Replies Views Last Post
  Seven Pounds 2008 1080p Blu-ray Remux AVC TrueHD 5.1 - KRaLiMaRKo KAiJu 0 24 11-06-2021, 09:35 PM
Last Post: KAiJu
  Pistol Whipped (2008) Bluray REMUX 1080p AVC DTS-HD MA 5.1-HUS AbrA 0 49 10-20-2021, 10:35 PM
Last Post: AbrA
  What Just Happened 2008 1080p Blu-ray Remux AVC DTS-HD MA 5.1-HDT KAiJu 0 73 10-06-2021, 06:33 AM
Last Post: KAiJu
  Meet The Spartans (2008) Bluray REMUX 1080p AVC DTS-HD HR 5.1-HUS AbrA 0 88 10-03-2021, 08:36 PM
Last Post: AbrA
  Mi-in-do 2008 1080p Blu-ray Remux AVC DTS-HD MA 5.1 - KRaLiMaRKo KAiJu 0 84 09-27-2021, 06:56 AM
Last Post: KAiJu

Forum Jump:


Users browsing this thread: 1 Guest(s)

Powered By MyBB
RSS RSS Syndication
Updated By iAndrew | 2022